Tamako.in.Moratorium.2013.1080p.BluRay.x265-BMTeam
http://www.imdb.com/title/tt3134060/

Thanks to ADC custom subbers!

General
Unique ID                      : 207030978207166138266804816465142058743 (0x9BC0B74E096835A48294910008558EF7)
Complete name                  : Tamako.in.Moratorium.2013.1080p.BluRay.x265-BMTeam.mkv
Format                         : Matroska
Format version                 : Version 4 / Version 2
File size                      : 1.36 GiB
Duration                       : 1 h 17 min
Overall bit rate               : 2 517 kb/s
Encoded date                   : UTC 2017-03-14T03:06:17Z
Writing application            : HandBrake 1.0.3 2017022500
Writing library                : Lavf57.7.2 / Lavf57.7.2

Video
ID                             : 1
Format                         : HEVC
Format/Info                    : High Efficiency Video Coding
Format profile                 : [email protected]@Main
Codec ID                       : V_MPEGH/ISO/HEVC
Duration                       : 1 h 17 min
Bit rate                       : 2 019 kb/s
Width                          : 1 920 pixels
Height                         : 1 080 pixels
Display aspect ratio           : 16:9
Frame rate mode                : Constant
Frame rate                     : 23.976 (24000/1001) FPS
Color space                    : YUV
Chroma subsampling             : 4:2:0
Bit depth                      : 8 bits
Bits/(Pixel*Frame)             : 0.041
Stream size                    : 1.09 GiB (80%)
Writing library                : x265 2.1:[Windows][GCC 5.4.0][64 bit] 8bit
Encoding settings              : wpp / ctu=64 / min-cu-size=8 / max-tu-size=32 / tu-intra-depth=1 / tu-inter-depth=1 / me=3 / subme=3 / merange=57 / no-rect / no-amp / max-merge=3 / temporal-mvp / no-early-skip / rskip / rdpenalty=0 / no-tskip / no-tskip-fast / no-strong-intra-smoothing / no-lossless / no-cu-lossless / no-constrained-intra / no-fast-intra / open-gop / no-temporal-layers / interlace=0 / keyint=240 / min-keyint=24 / scenecut=40 / rc-lookahead=25 / lookahead-slices=4 / bframes=4 / bframe-bias=0 / b-adapt=2 / ref=4 / limit-refs=3 / limit-modes / weightp / no-weightb / aq-mode=1 / qg-size=32 / aq-strength=1.00 / cbqpoffs=0 / crqpoffs=0 / rd=4 / psy-rd=2.00 / rdoq-level=2 / psy-rdoq=1.00 / log2-max-poc-lsb=8 / no-rd-refine / signhide / deblock=0:0 / sao / no-sao-non-deblock / b-pyramid / cutree / no-intra-refresh / rc=crf / crf=20.0 / qcomp=0.60 / qpmin=0 / qpmax=69 / qpstep=4 / ipratio=1.40 / pbratio=1.30
Default                        : Yes
Forced                         : No
Color range                    : Limited
Color primaries                : BT.709
Transfer characteristics       : BT.709
Matrix coefficients            : BT.709

Audio
ID                             : 2
Format                         : AC-3
Format/Info                    : Audio Coding 3
Mode extension                 : CM (complete main)
Format settings, Endianness    : Big
Codec ID                       : A_AC3
Duration                       : 1 h 17 min
Bit rate mode                  : Constant
Bit rate                       : 448 kb/s
Channel(s)                     : 6 channels
Channel positions              : Front: L C R, Side: L R, LFE
Sampling rate                  : 48.0 kHz
Frame rate                     : 31.250 FPS (1536 spf)
Bit depth                      : 16 bits
Compression mode               : Lossy
Stream size                    : 248 MiB (18%)
Title                          : Surround
Language                       : Japanese
Default                        : Yes
Forced                         : No

Text #1
ID                             : 3
Format                         : PGS
Codec ID                       : S_HDMV/PGS
Codec ID/Info                  : Picture based subtitle format used on BDs/HD-DVDs
Language                       : English
Default                        : No
Forced                         : No

Text #2
ID                             : 4
Format                         : PGS
Codec ID                       : S_HDMV/PGS
Codec ID/Info                  : Picture based subtitle format used on BDs/HD-DVDs
Language                       : Chinese
Default                        : No
Forced                         : No

Text #3
ID                             : 5
Format                         : PGS
Codec ID                       : S_HDMV/PGS
Codec ID/Info                  : Picture based subtitle format used on BDs/HD-DVDs
Language                       : Chinese
Default                        : No
Forced                         : No

Menu
00:00:00.000                   : :Chapter 1
00:07:36.206                   : :Chapter 2
00:13:07.870                   : :Chapter 3
00:18:30.443                   : :Chapter 4
00:24:04.985                   : :Chapter 5
00:28:55.234                   : :Chapter 6
00:35:37.719                   : :Chapter 7
00:41:14.472                   : :Chapter 8
00:48:28.656                   : :Chapter 9
00:55:29.493                   : :Chapter 10
01:05:58.580                   : :Chapter 11
01:11:07.847                   : :Chapter 12
01:17:24.974                   : :Chapter 13