boheme
================================================================================
http://www.allocine.fr/film/fichefilm_gen_cfilm=194397.html
*                                                                              *

Date de sortie 30 mars 2016 (1h 35min)
De Jennifer Yuh, Alessandro Carloni
Avec Manu Payet, Pierre Arditi, Alison Wheeler plus
Genres Animation, Aventure, Comedie
Nationalites Americain, Chinois
*                                                                              *
A partir de 3 ans
Po avait toujours cru son pere panda disparu, mais le voila qui reapparait ! 
Enfin reunis, pere et fils vont voyager jusquÆau village secret des pandas. Ils 
y feront la connaissance de certains de leurs semblables, tous plus dejantes les 
uns que les autres. Mais lorsque le malefique Kai decide de sÆattaquer aux plus 
grands maitres du kung-fu a travers toute la Chine, Po va devoir reussir lÆ
impossible : transformer une horde de pandas maladroits et rigolards en experts 
des arts martiaux, les redoutables Kung Fu Pandas ! 

================================================================================
*                        Fichiers contenus dans le post                        *
================================================================================

--------------------------------------------------------------------------------
Kung.Fu.Panda.3.2016.FR.BDRip.XViD.boheme \
--------------------------------------------------------------------------------
Kung Fu Panda 3.jpg
Kung.Fu.Panda.3.2016.FR.BDRip.XViD.boheme.avi                           01:34:54

Duree................: 01:34:54
Taille des fichiers..: 691.81 Mo


--------------------------------------------------------------------------------
Kung.Fu.Panda.3.2016.FR.BDRip.XViD.boheme \Kung.Fu.Panda.3.2016.FR.BDRip.XViD.bo
heme
--------------------------------------------------------------------------------
Kung.Fu.Panda.3.2016.FR.BDRip.XViD.boheme.nfo

Taille des fichiers..: 0 Octets

================================================================================
*Duree totale du post .........: 01:34:54                                      *
*Taille totale du post ........: 691.81 Mo                                     *
================================================================================

================================================================================
*                Kung.Fu.Panda.3.2016.FR.BDRip.XViD.boheme.avi                 *
================================================================================
*Format                        : AVI                                           *
*Format/Info                   : Audio Video Interleave                        *
*File size                     : 692 MiB                                       *
*Duration                      : 1h 34mn                                       *
*Overall bit rate              : 1 019 Kbps                                    *
*Writing application           : Lavf54.63.104                                 *
*=================================== Video ====================================*
*ID                            : 0                                             *
*Format                        : MPEG-4 Visual                                 *
*Format profile                : Simple@L3                                     *
*Format settings, BVOP         : No                                            *
*Format settings, QPel         : No                                            *
*Format settings, GMC          : No warppoints                                 *
*Format settings, Matrix       : Default (H.263)                               *
*Codec ID                      : XVID                                          *
*Codec ID/Hint                 : XviD                                          *
*Duration                      : 1h 34mn                                       *
*Bit rate                      : 879 Kbps                                      *
*Width                         : 720 pixels                                    *
*Height                        : 306 pixels                                    *
*Display aspect ratio          : 2.35:1                                        *
*Frame rate                    : 23.976 fps                                    *
*Color space                   : YUV                                           *
*Chroma subsampling            : 4:2:0                                         *
*Bit depth                     : 8 bits                                        *
*Scan type                     : Progressive                                   *
*Compression mode              : Lossy                                         *
*Bits/(Pixel*Frame)            : 0.166                                         *
*Stream size                   : 597 MiB (86%)                                 *
*Writing library               : XviD 64                                       *
*================================== Audio #1 ==================================*
*ID                            : 1                                             *
*Format                        : MPEG Audio                                    *
*Format version                : Version 1                                     *
*Format profile                : Layer 3                                       *
*Mode                          : Joint stereo                                  *
*Mode extension                : MS Stereo                                     *
*Codec ID                      : 55                                            *
*Codec ID/Hint                 : MP3                                           *
*Duration                      : 1h 34mn                                       *
*Bit rate mode                 : Constant                                      *
*Bit rate                      : 128 Kbps                                      *
*Channel(s)                    : 2 channels                                    *
*Sampling rate                 : 44.1 KHz                                      *
*Compression mode              : Lossy                                         *
*Stream size                   : 86.9 MiB (13%)                                *
*Alignment                     : Aligned on interleaves                        *
*Interleave, duration          : 26 ms (0.63 video frame)                      *
*Interleave, preload duration  : 26 ms                                         *

================================================================================