boheme
================================================================================
* http://www.cinemafantastique.net/Le-Livre-de-la-jungle.html                  *
*                                                                              *
* Titre          : Le Livre de la jungle                                       *
* Titre original : "The Jungle Book"                                           *
* Annee de prod. : 2016                                                        *
* Realisateur    : Jon Favreau                                                 *
* Scenaristes    : Justin Marks, Rudyard Kipling                               *
* Avec           : Ben Kingsley, Christopher Walken, Scarlett Johansson, Idris *
* Musique        : John Debney                                                 *
* Genre          : Aventure, Fantastique                                       *
* Pays d'origine : USA                                                         *
* Duree          : 1h46                                                        *
*                                                                              *
* Descriptif     :                                                             *
* Les aventures de Mowgli, un petit homme eleve dans la jungle par une         *
* famille de loups. Mais Mowgli n'est plus le bienvenu dans la jungle depuis   *
* que le redoutable tigre Shere Khan, qui porte les cicatrices des hommes,     *
* promet d'eliminer celui qu'il considere comme une menace. Pousse a           *
* abandonner le seul foyer qu'il ait jamais connu, Mowgli se lance dans un     *
* voyage captivant, a la decouverte de soi, guide par son mentor la panthere   *
* Bagheera et l'ours Baloo. Sur le chemin, Mowgli rencontre des creatures      *
* comme Kaa, un python a la voix seduisante et au regard hypnotique ou le Roi  *
* Louie, qui tente de contraindre Mowgli a lui reveler le secret de la fleur   *
* rouge et insaisissable : le feu.                                             *

================================================================================
*                        Fichiers contenus dans le post                        *
================================================================================

--------------------------------------------------------------------------------
Le.Livre.De.La.Jungle.2016.FR.XViD.boheme \
--------------------------------------------------------------------------------
Le Livre de la jungle.jpg
Le.Livre.De.La.Jungle.2016.FR.XViD.boheme.avi                           01:45:54

Duree................: 01:45:54
Taille des fichiers..: 1.77 Go


--------------------------------------------------------------------------------
Le.Livre.De.La.Jungle.2016.FR.XViD.boheme \Le.Livre.De.La.Jungle.2016.FR.XViD.bo
heme
--------------------------------------------------------------------------------
Le.Livre.De.La.Jungle.2016.FR.XViD.boheme.nfo

Taille des fichiers..: 0 Octets

================================================================================
*Duree totale du post .........: 01:45:54                                      *
*Taille totale du post ........: 1.77 Go                                       *
================================================================================

================================================================================
*                Le.Livre.De.La.Jungle.2016.FR.XViD.boheme.avi                 *
================================================================================
*Format                        : AVI                                           *
*Format/Info                   : Audio Video Interleave                        *
*Format profile                : OpenDML                                       *
*File size                     : 1.77 GiB                                      *
*Duration                      : 1h 45mn                                       *
*Overall bit rate              : 2 389 Kbps                                    *
*Movie name                    : Le livre de la jungle                         *
*Writing application           : Lavf57.41.100                                 *
*=================================== Video ====================================*
*ID                            : 0                                             *
*Format                        : xvid                                          *
*Codec ID                      : xvid                                          *
*Duration                      : 1h 45mn                                       *
*Bit rate                      : 2 249 Kbps                                    *
*Width                         : 1 280 pixels                                  *
*Height                        : 692 pixels                                    *
*Display aspect ratio          : 1.85:1                                        *
*Frame rate                    : 25.000 fps                                    *
*Bits/(Pixel*Frame)            : 0.102                                         *
*Stream size                   : 1.66 GiB (94%)                                *
*================================== Audio #1 ==================================*
*ID                            : 1                                             *
*Format                        : MPEG Audio                                    *
*Format version                : Version 1                                     *
*Format profile                : Layer 3                                       *
*Mode                          : Joint stereo                                  *
*Codec ID                      : 55                                            *
*Codec ID/Hint                 : MP3                                           *
*Duration                      : 1h 45mn                                       *
*Bit rate mode                 : Constant                                      *
*Bit rate                      : 128 Kbps                                      *
*Channel(s)                    : 2 channels                                    *
*Sampling rate                 : 44.1 KHz                                      *
*Compression mode              : Lossy                                         *
*Stream size                   : 97.0 MiB (5%)                                 *
*Alignment                     : Aligned on interleaves                        *
*Interleave, duration          : 26 ms (0.65 video frame)                      *
*Interleave, preload duration  : 26 ms                                         *
*Title                         : French                                        *
*Writing library               : LAME3.99.5                                    *

================================================================================