boheme
================================================================================
http://www.allocine.fr/film/fichefilm_gen_cfilm=221553.html
*                                                                              *

Date de sortie 27 juillet 2016 en DVD (1h 20min)
De Rafa Martinez
Avec Ingrid Garcia Jonsson, Bruno Sevilla, Oriol Tarrida plus
Genre Epouvante-horreur
Nationalites Espagnol, Polonais
*                                                                              *
Chaque annee, en Espagne, il y a plus de 50 000 expulsions.
85 % sont realisees pacifiquement.
13% par la force.
Et 2%, en utilisant dÆautres methodesà

================================================================================
*                        Fichiers contenus dans le post                        *
================================================================================

--------------------------------------------------------------------------------
Sweet.Home.2015.FR.BDRiP.XViD.boheme \
--------------------------------------------------------------------------------
Sweet.Home.2015.FR.BDRiP.XViD.boheme.avi                                01:17:34

Duree................: 01:17:34
Taille des fichiers..: 708.56 Mo


--------------------------------------------------------------------------------
Sweet.Home.2015.FR.BDRiP.XViD.boheme \Sweet.Home.2015.FR.BDRiP.XViD.boheme
--------------------------------------------------------------------------------
Sweet.Home.2015.FR.BDRiP.XViD.boheme.nfo

Taille des fichiers..: 0 Octets

================================================================================
*Duree totale du post .........: 01:17:34                                      *
*Taille totale du post ........: 708.56 Mo                                     *
================================================================================

================================================================================
*                   Sweet.Home.2015.FR.BDRiP.XViD.boheme.avi                   *
================================================================================
*Format                        : AVI                                           *
*Format/Info                   : Audio Video Interleave                        *
*File size                     : 709 MiB                                       *
*Duration                      : 1h 17mn                                       *
*Overall bit rate              : 1 277 Kbps                                    *
*Writing application           : Lavf55.18.104                                 *
*=================================== Video ====================================*
*ID                            : 0                                             *
*Format                        : xvid                                          *
*Codec ID                      : xvid                                          *
*Duration                      : 1h 17mn                                       *
*Bit rate                      : 1 136 Kbps                                    *
*Width                         : 720 pixels                                    *
*Height                        : 302 pixels                                    *
*Display aspect ratio          : 2.40:1                                        *
*Frame rate                    : 25.000 fps                                    *
*Bits/(Pixel*Frame)            : 0.209                                         *
*Stream size                   : 630 MiB (89%)                                 *
*================================== Audio #1 ==================================*
*ID                            : 1                                             *
*Format                        : MPEG Audio                                    *
*Format version                : Version 1                                     *
*Format profile                : Layer 3                                       *
*Mode                          : Joint stereo                                  *
*Mode extension                : MS Stereo                                     *
*Codec ID                      : 55                                            *
*Codec ID/Hint                 : MP3                                           *
*Duration                      : 1h 17mn                                       *
*Bit rate mode                 : Constant                                      *
*Bit rate                      : 128 Kbps                                      *
*Channel(s)                    : 2 channels                                    *
*Sampling rate                 : 48.0 KHz                                      *
*Compression mode              : Lossy                                         *
*Stream size                   : 71.0 MiB (10%)                                *
*Alignment                     : Aligned on interleaves                        *
*Interleave, duration          : 24 ms (0.60 video frame)                      *
*Interleave, preload duration  : 72 ms                                         *

================================================================================