Disc Title:     SAMURAI_CHAMPLOO_D2
Disc Size:      42,231,230,819 bytes
Protection:     AACS
BD-Java:        No
BDInfo:         0.5.8

Notes:          

BDINFO HOME:
  Cinema Squid
    http://www.cinemasquid.com/blu-ray/tools/bdinfo

INCLUDES FORUMS REPORT FOR:
  AVS Forum Blu-ray Audio and Video Specifications Thread
    http://www.avsforum.com/avs-vb/showthread.php?t=1155731


********************
PLAYLIST: 00001.MPLS
********************

<--- BEGIN FORUMS PASTE --->
[code]
                                                                                                                Total   Video                                             
Title                                                           Codec   Length  Movie Size      Disc Size       Bitrate Bitrate Main Audio Track                          Secondary Audio Track
-----                                                           ------  ------- --------------  --------------  ------- ------- ------------------                        ---------------------
00001.MPLS                                                      AVC     3:30:15 41,740,634,112  42,231,230,819  26.47   19.02   Dolby TrueHD 5.1 1658Kbps (48kHz/16-bit)  
[/code]

[code]

DISC INFO:

Disc Title:     SAMURAI_CHAMPLOO_D2
Disc Size:      42,231,230,819 bytes
Protection:     AACS
BD-Java:        No
BDInfo:         0.5.8

PLAYLIST REPORT:

Name:                   00001.MPLS
Length:                 3:30:15.269 (h:m:s.ms)
Size:                   41,740,634,112 bytes
Total Bitrate:          26.47 Mbps

VIDEO:

Codec                   Bitrate             Description     
-----                   -------             -----------     
MPEG-4 AVC Video        19017 kbps          1080p / 23.976 fps / 16:9 / High Profile 4.1

AUDIO:

Codec                           Language        Bitrate         Description     
-----                           --------        -------         -----------     
Dolby TrueHD Audio              English         1658 kbps       5.1 / 48 kHz / 1658 kbps / 16-bit (AC3 Embedded: 5.1 / 48 kHz / 448 kbps / DN -3dB)
Dolby TrueHD Audio              Japanese        1663 kbps       5.1 / 48 kHz / 1663 kbps / 16-bit (AC3 Embedded: 5.1 / 48 kHz / 448 kbps / DN -4dB)

SUBTITLES:

Codec                           Language        Bitrate         Description     
-----                           --------        -------         -----------     
Presentation Graphics           English         36.117 kbps                     
Presentation Graphics           English         5.702 kbps                      

FILES:

Name            Time In         Length          Size            Total Bitrate   
----            -------         ------          ----            -------------   
00036.M2TS      0:00:00.000     0:23:21.775     4,690,710,528   26,770          
00037.M2TS      0:23:21.775     0:23:20.982     4,799,815,680   27,408          
00038.M2TS      0:46:42.758     0:23:21.358     4,690,010,112   26,774          
00039.M2TS      1:10:04.116     0:23:21.858     4,615,563,264   26,340          
00040.M2TS      1:33:25.975     0:23:21.274     4,607,784,960   26,306          
00041.M2TS      1:56:47.250     0:23:21.858     4,628,115,456   26,411          
00042.M2TS      2:20:09.108     0:23:21.942     4,542,849,024   25,923          
00043.M2TS      2:43:31.051     0:23:21.983     4,558,276,608   26,010          
00044.M2TS      3:06:53.035     0:23:21.733     4,607,121,408   26,294          
00047.M2TS      3:30:14.768     0:00:00.500     387,072         6,187           

CHAPTERS:

Number          Time In         Length          Avg Video Rate  Max 1-Sec Rate  Max 1-Sec Time  Max 5-Sec Rate  Max 5-Sec Time  Max 10Sec Rate  Max 10Sec Time  Avg Frame Size  Max Frame Size  Max Frame Time  
------          -------         ------          --------------  --------------  --------------  --------------  --------------  --------------  --------------  --------------  --------------  --------------  
1               0:00:00.000     0:01:31.007     22,267 kbps     36,542 kbps     00:01:07.609    33,735 kbps     00:00:12.887    29,913 kbps     00:00:11.011    116,039 bytes   365,979 bytes   00:00:14.055    
2               0:01:31.007     0:09:07.505     18,845 kbps     30,656 kbps     00:02:56.676    25,984 kbps     00:02:56.759    24,551 kbps     00:02:53.047    98,248 bytes    322,368 bytes   00:06:05.990    
3               0:10:38.512     0:10:56.530     19,519 kbps     30,314 kbps     00:13:08.412    27,115 kbps     00:13:04.992    25,878 kbps     00:13:00.029    101,765 bytes   280,459 bytes   00:13:07.036    
4               0:21:35.043     0:01:46.731     14,379 kbps     29,150 kbps     00:23:13.016    27,470 kbps     00:23:09.137    23,823 kbps     00:23:04.299    74,965 bytes    307,637 bytes   00:23:11.181    
5               0:23:21.775     0:01:31.007     24,430 kbps     39,008 kbps     00:24:29.467    36,012 kbps     00:23:34.788    32,332 kbps     00:23:32.786    127,365 bytes   393,273 bytes   00:23:35.831    
6               0:24:52.782     0:09:08.339     19,591 kbps     32,212 kbps     00:33:58.286    28,057 kbps     00:28:22.742    25,720 kbps     00:28:20.365    102,141 bytes   640,266 bytes   00:34:00.163    
7               0:34:01.122     0:10:55.529     18,341 kbps     25,755 kbps     00:36:30.021    25,091 kbps     00:36:27.560    21,338 kbps     00:36:22.722    95,623 bytes    596,470 bytes   00:34:02.832    
8               0:44:56.652     0:01:46.105     15,794 kbps     24,004 kbps     00:46:36.502    22,665 kbps     00:46:35.334    20,761 kbps     00:46:30.120    82,343 bytes    289,517 bytes   00:46:02.551    
9               0:46:42.758     0:01:31.007     22,170 kbps     36,943 kbps     00:47:50.534    33,295 kbps     00:46:55.771    29,588 kbps     00:46:53.769    115,586 bytes   366,242 bytes   00:47:50.826    
10              0:48:13.765     0:08:46.734     19,896 kbps     36,554 kbps     00:55:10.098    28,096 kbps     00:52:22.472    26,880 kbps     00:52:22.264    103,728 bytes   452,047 bytes   00:56:58.248    
11              0:57:00.500     0:10:03.519     19,521 kbps     36,466 kbps     01:00:03.349    25,772 kbps     01:00:03.266    24,688 kbps     01:00:03.349    101,772 bytes   330,775 bytes   01:00:14.360    
12              1:07:04.019     0:03:00.096     13,599 kbps     24,377 kbps     01:07:31.213    23,221 kbps     01:07:27.209    20,273 kbps     01:08:29.355    70,897 bytes    321,206 bytes   01:07:14.155    
13              1:10:04.116     0:01:31.049     22,404 kbps     36,594 kbps     01:11:11.725    33,542 kbps     01:10:17.129    29,806 kbps     01:10:15.127    116,805 bytes   374,049 bytes   01:10:18.172    
14              1:11:35.165     0:10:09.108     20,323 kbps     36,383 kbps     01:20:47.926    33,243 kbps     01:21:07.696    32,010 kbps     01:21:05.819    105,956 bytes   413,225 bytes   01:21:43.440    
15              1:21:44.274     0:09:55.553     17,966 kbps     27,468 kbps     01:30:41.686    25,302 kbps     01:30:40.852    23,334 kbps     01:30:41.269    93,665 bytes    400,506 bytes   01:21:46.276    
16              1:31:39.827     0:01:46.147     14,608 kbps     24,004 kbps     01:33:19.176    22,271 kbps     01:33:18.509    19,816 kbps     01:33:13.296    76,162 bytes    279,645 bytes   01:32:40.554    
17              1:33:25.975     0:01:31.049     22,450 kbps     36,294 kbps     01:34:33.709    33,626 kbps     01:33:38.988    29,862 kbps     01:33:36.986    117,046 bytes   377,154 bytes   01:34:34.043    
18              1:34:57.024     0:10:34.050     20,223 kbps     36,391 kbps     01:43:46.845    33,285 kbps     01:44:05.989    32,060 kbps     01:44:01.360    105,431 bytes   465,231 bytes   01:45:29.030    
19              1:45:31.074     0:09:29.610     18,006 kbps     26,455 kbps     01:50:12.939    25,188 kbps     01:51:21.257    23,972 kbps     01:51:16.252    93,875 bytes    436,169 bytes   01:45:32.075    
20              1:55:00.685     0:01:46.564     14,644 kbps     26,652 kbps     01:56:40.034    24,542 kbps     01:56:39.700    20,937 kbps     01:56:34.445    76,346 bytes    279,645 bytes   01:56:01.412    
21              1:56:47.250     0:01:31.049     22,462 kbps     36,575 kbps     01:57:54.984    33,650 kbps     01:57:00.263    29,946 kbps     01:56:58.261    117,109 bytes   367,750 bytes   01:57:55.318    
22              1:58:18.299     0:10:09.442     20,653 kbps     35,673 kbps     01:59:33.708    34,788 kbps     01:59:30.997    33,930 kbps     01:59:30.246    107,676 bytes   449,705 bytes   02:08:26.740    
23              2:08:27.741     0:09:54.510     17,699 kbps     34,941 kbps     02:12:02.581    26,859 kbps     02:11:59.536    25,237 kbps     02:12:01.288    92,277 bytes    306,463 bytes   02:17:18.021    
24              2:18:22.252     0:01:46.856     14,401 kbps     26,924 kbps     02:20:01.643    24,934 kbps     02:20:01.309    21,020 kbps     02:19:56.137    75,078 bytes    276,285 bytes   02:19:22.020    
25              2:20:09.108     0:01:31.007     22,914 kbps     38,118 kbps     02:21:16.718    34,170 kbps     02:20:22.121    30,449 kbps     02:20:20.119    119,462 bytes   376,738 bytes   02:20:23.164    
26              2:21:40.116     0:09:34.865     19,869 kbps     35,293 kbps     02:24:51.516    26,015 kbps     02:24:51.224    24,705 kbps     02:22:44.555    103,587 bytes   394,406 bytes   02:31:13.105    
27              2:31:14.982     0:10:29.545     18,376 kbps     31,621 kbps     02:34:56.912    30,701 kbps     02:34:54.702    28,174 kbps     02:34:54.284    95,803 bytes    387,246 bytes   02:31:15.983    
28              2:41:44.528     0:01:46.523     15,042 kbps     26,404 kbps     02:43:23.919    24,429 kbps     02:43:23.460    21,100 kbps     02:43:18.330    78,422 bytes    279,645 bytes   02:42:45.297    
29              2:43:31.051     0:01:31.007     22,076 kbps     35,546 kbps     02:44:38.743    33,188 kbps     02:43:44.064    29,472 kbps     02:43:42.062    115,092 bytes   363,235 bytes   02:43:45.106    
30              2:45:02.058     0:08:27.048     18,544 kbps     29,088 kbps     02:46:06.623    26,139 kbps     02:46:05.955    25,490 kbps     02:45:51.983    96,679 bytes    374,172 bytes   02:53:27.563    
31              2:53:29.106     0:10:05.771     19,086 kbps     27,196 kbps     03:01:50.941    24,448 kbps     03:01:48.689    22,969 kbps     03:01:45.686    99,504 bytes    350,281 bytes   02:53:31.859    
32              3:03:34.878     0:03:18.156     17,381 kbps     29,975 kbps     03:04:45.908    29,041 kbps     03:04:41.904    26,724 kbps     03:04:37.024    90,616 bytes    443,881 bytes   03:04:45.073    
33              3:06:53.035     0:01:31.007     23,685 kbps     37,580 kbps     03:08:00.769    35,037 kbps     03:07:06.048    31,379 kbps     03:07:04.046    123,483 bytes   387,400 bytes   03:08:01.103    
34              3:08:24.042     0:09:10.549     19,240 kbps     28,402 kbps     03:17:28.294    25,884 kbps     03:17:24.457    24,683 kbps     03:17:19.911    100,307 bytes   296,497 bytes   03:13:49.659    
35              3:17:34.592     0:10:53.986     18,797 kbps     26,968 kbps     03:20:05.284    25,962 kbps     03:21:27.366    24,971 kbps     03:21:23.070    98,000 bytes    293,821 bytes   03:26:03.184    
36              3:28:28.579     0:01:46.689     15,283 kbps     23,823 kbps     03:30:07.970    22,408 kbps     03:30:07.302    20,338 kbps     03:30:02.089    79,707 bytes    284,516 bytes   03:29:24.134    

STREAM DIAGNOSTICS:

File            PID             Type            Codec           Language                Seconds                 Bitrate                 Bytes           Packets         
----            ---             ----            -----           --------                --------------          --------------          -------------   -----           
00036.M2TS      4113 (0x1011)   0x1B            AVC                                     1401.609                19,045                  3,336,730,778   18,153,896      
00036.M2TS      4352 (0x1100)   0x83            TrueHD          eng (English)           1401.609                2,179                   381,760,524     3,064,177       
00036.M2TS      4353 (0x1101)   0x83            TrueHD          jpn (Japanese)          1401.609                2,192                   384,023,690     3,118,451       
00036.M2TS      4608 (0x1200)   0x90            PGS             eng (English)           1401.609                41                      7,185,393       41,107          
00036.M2TS      4609 (0x1201)   0x90            PGS             eng (English)           1401.609                6                       1,099,394       6,145           
00037.M2TS      4113 (0x1011)   0x1B            AVC                                     1400.816                19,035                  3,333,151,645   18,134,613      
00037.M2TS      4352 (0x1100)   0x83            TrueHD          eng (English)           1400.816                2,278                   398,868,024     3,391,084       
00037.M2TS      4353 (0x1101)   0x83            TrueHD          jpn (Japanese)          1400.816                2,275                   398,394,960     3,379,594       
00037.M2TS      4608 (0x1200)   0x90            PGS             eng (English)           1400.816                40                      7,074,004       40,642          
00037.M2TS      4609 (0x1201)   0x90            PGS             eng (English)           1400.816                6                       1,098,135       6,138           
00038.M2TS      4113 (0x1011)   0x1B            AVC                                     1401.191                19,075                  3,340,969,784   18,177,053      
00038.M2TS      4352 (0x1100)   0x83            TrueHD          eng (English)           1401.191                2,144                   375,474,376     3,083,587       
00038.M2TS      4353 (0x1101)   0x83            TrueHD          jpn (Japanese)          1401.191                2,124                   371,970,062     3,067,867       
00038.M2TS      4608 (0x1200)   0x90            PGS             eng (English)           1401.191                49                      8,565,534       48,813          
00038.M2TS      4609 (0x1201)   0x90            PGS             eng (English)           1401.191                3                       496,327         2,834           
00039.M2TS      4113 (0x1011)   0x1B            AVC                                     1401.692                19,026                  3,333,641,533   18,137,091      
00039.M2TS      4352 (0x1100)   0x83            TrueHD          eng (English)           1401.692                2,096                   367,222,256     2,902,856       
00039.M2TS      4353 (0x1101)   0x83            TrueHD          jpn (Japanese)          1401.692                2,092                   366,626,770     2,913,606       
00039.M2TS      4608 (0x1200)   0x90            PGS             eng (English)           1401.692                32                      5,692,175       32,656          
00039.M2TS      4609 (0x1201)   0x90            PGS             eng (English)           1401.692                6                       1,107,128       6,180           
00040.M2TS      4113 (0x1011)   0x1B            AVC                                     1401.108                19,044                  3,335,393,542   18,146,674      
00040.M2TS      4352 (0x1100)   0x83            TrueHD          eng (English)           1401.108                2,066                   361,853,554     2,888,940       
00040.M2TS      4353 (0x1101)   0x83            TrueHD          jpn (Japanese)          1401.108                2,064                   361,568,672     2,883,242       
00040.M2TS      4608 (0x1200)   0x90            PGS             eng (English)           1401.108                24                      4,142,978       23,825          
00040.M2TS      4609 (0x1201)   0x90            PGS             eng (English)           1401.108                9                       1,631,302       9,216           
00041.M2TS      4113 (0x1011)   0x1B            AVC                                     1401.692                19,044                  3,336,674,062   18,153,667      
00041.M2TS      4352 (0x1100)   0x83            TrueHD          eng (English)           1401.692                2,099                   367,760,000     2,900,560       
00041.M2TS      4353 (0x1101)   0x83            TrueHD          jpn (Japanese)          1401.692                2,117                   370,875,450     2,960,969       
00041.M2TS      4608 (0x1200)   0x90            PGS             eng (English)           1401.692                36                      6,318,073       36,176          
00041.M2TS      4609 (0x1201)   0x90            PGS             eng (English)           1401.692                7                       1,142,888       6,396           
00042.M2TS      4113 (0x1011)   0x1B            AVC                                     1401.775                19,032                  3,334,743,541   18,143,232      
00042.M2TS      4352 (0x1100)   0x83            TrueHD          eng (English)           1401.775                2,000                   350,432,536     2,693,258       
00042.M2TS      4353 (0x1101)   0x83            TrueHD          jpn (Japanese)          1401.775                2,011                   352,378,726     2,738,528       
00042.M2TS      4608 (0x1200)   0x90            PGS             eng (English)           1401.775                32                      5,658,518       32,486          
00042.M2TS      4609 (0x1201)   0x90            PGS             eng (English)           1401.775                6                       1,105,145       6,169           
00043.M2TS      4113 (0x1011)   0x1B            AVC                                     1401.817                18,845                  3,302,160,863   17,966,115      
00043.M2TS      4352 (0x1100)   0x83            TrueHD          eng (English)           1401.817                2,033                   356,153,648     2,842,559       
00043.M2TS      4353 (0x1101)   0x83            TrueHD          jpn (Japanese)          1401.817                2,037                   356,974,758     2,860,515       
00043.M2TS      4608 (0x1200)   0x90            PGS             eng (English)           1401.817                24                      4,283,774       24,635          
00043.M2TS      4609 (0x1201)   0x90            PGS             eng (English)           1401.817                0                       34,904          197             
00044.M2TS      4113 (0x1011)   0x1B            AVC                                     1401.567                19,030                  3,333,899,459   18,138,613      
00044.M2TS      4352 (0x1100)   0x83            TrueHD          eng (English)           1401.567                2,062                   361,254,042     2,843,485       
00044.M2TS      4353 (0x1101)   0x83            TrueHD          jpn (Japanese)          1401.567                2,086                   365,511,516     2,913,046       
00044.M2TS      4608 (0x1200)   0x90            PGS             eng (English)           1401.567                46                      8,032,177       46,064          
00044.M2TS      4609 (0x1201)   0x90            PGS             eng (English)           1401.567                7                       1,276,100       7,226           
00047.M2TS      4113 (0x1011)   0x1B            AVC                                     0.334                   1,049                   43,765          248             
00047.M2TS      4352 (0x1100)   0x83            TrueHD          eng (English)           0.334                   1,430                   59,642          841             
00047.M2TS      4353 (0x1101)   0x83            TrueHD          jpn (Japanese)          0.334                   1,430                   59,642          841             
00047.M2TS      4608 (0x1200)   0x90            PGS             eng (English)           0.334                   2                       70              7               
00047.M2TS      4609 (0x1201)   0x90            PGS             eng (English)           0.334                   2                       70              7               

[/code]
<---- END FORUMS PASTE ---->

QUICK SUMMARY:

Disc Title: SAMURAI_CHAMPLOO_D2
Disc Size: 42,231,230,819 bytes
Protection: AACS
BD-Java: No
Playlist: 00001.MPLS
Size: 41,740,634,112 bytes
Length: 3:30:15.269
Total Bitrate: 26.47 Mbps
Video: MPEG-4 AVC Video / 19017 kbps / 1080p / 23.976 fps / 16:9 / High Profile 4.1
Audio: English / Dolby TrueHD Audio / 5.1 / 48 kHz / 1658 kbps / 16-bit (AC3 Embedded: 5.1 / 48 kHz / 448 kbps / DN -3dB)
Audio: Japanese / Dolby TrueHD Audio / 5.1 / 48 kHz / 1663 kbps / 16-bit (AC3 Embedded: 5.1 / 48 kHz / 448 kbps / DN -4dB)
Subtitle: English / 36.117 kbps
Subtitle: English / 5.702 kbps


********************
PLAYLIST: 00035.MPLS
********************

<--- BEGIN FORUMS PASTE --->
[code]
                                                                                                                Total   Video                                             
Title                                                           Codec   Length  Movie Size      Disc Size       Bitrate Bitrate Main Audio Track                          Secondary Audio Track
-----                                                           ------  ------- --------------  --------------  ------- ------- ------------------                        ---------------------
00035.MPLS                                                      AVC     0:23:21 4,558,276,608   42,231,230,819  26.01   18.84   Dolby TrueHD 5.1 1584Kbps (48kHz/16-bit)  
[/code]

[code]

DISC INFO:

Disc Title:     SAMURAI_CHAMPLOO_D2
Disc Size:      42,231,230,819 bytes
Protection:     AACS
BD-Java:        No
BDInfo:         0.5.8

PLAYLIST REPORT:

Name:                   00035.MPLS
Length:                 0:23:21.983 (h:m:s.ms)
Size:                   4,558,276,608 bytes
Total Bitrate:          26.01 Mbps

VIDEO:

Codec                   Bitrate             Description     
-----                   -------             -----------     
MPEG-4 AVC Video        18843 kbps          1080p / 23.976 fps / 16:9 / High Profile 4.1

AUDIO:

Codec                           Language        Bitrate         Description     
-----                           --------        -------         -----------     
Dolby TrueHD Audio              English         1584 kbps       5.1 / 48 kHz / 1584 kbps / 16-bit (AC3 Embedded: 5.1 / 48 kHz / 448 kbps / DN -3dB)
Dolby TrueHD Audio              Japanese        1589 kbps       5.1 / 48 kHz / 1589 kbps / 16-bit (AC3 Embedded: 5.1 / 48 kHz / 448 kbps / DN -4dB)

SUBTITLES:

Codec                           Language        Bitrate         Description     
-----                           --------        -------         -----------     
Presentation Graphics           English         24.444 kbps                     
Presentation Graphics           English         0.199 kbps                      

FILES:

Name            Time In         Length          Size            Total Bitrate   
----            -------         ------          ----            -------------   
00043.M2TS      0:00:00.000     0:23:21.983     4,558,276,608   26,010          

CHAPTERS:

Number          Time In         Length          Avg Video Rate  Max 1-Sec Rate  Max 1-Sec Time  Max 5-Sec Rate  Max 5-Sec Time  Max 10Sec Rate  Max 10Sec Time  Avg Frame Size  Max Frame Size  Max Frame Time  
------          -------         ------          --------------  --------------  --------------  --------------  --------------  --------------  --------------  --------------  --------------  --------------  
1               0:00:00.000     0:01:31.007     22,076 kbps     35,546 kbps     00:01:07.692    33,188 kbps     00:00:13.013    29,472 kbps     00:00:11.011    115,040 bytes   363,235 bytes   00:00:14.055    
2               0:01:31.007     0:08:27.048     18,544 kbps     29,088 kbps     00:02:35.572    26,139 kbps     00:02:34.904    25,490 kbps     00:02:20.932    96,679 bytes    374,172 bytes   00:09:56.512    
3               0:09:58.055     0:10:05.771     19,086 kbps     27,196 kbps     00:18:19.890    24,448 kbps     00:18:17.638    22,969 kbps     00:18:14.635    99,504 bytes    350,281 bytes   00:10:00.808    
4               0:20:03.827     0:03:18.156     17,381 kbps     29,975 kbps     00:21:14.856    29,041 kbps     00:21:10.852    26,724 kbps     00:21:05.973    90,635 bytes    443,881 bytes   00:21:14.022    

STREAM DIAGNOSTICS:

File            PID             Type            Codec           Language                Seconds                 Bitrate                 Bytes           Packets         
----            ---             ----            -----           --------                --------------          --------------          -------------   -----           
00043.M2TS      4113 (0x1011)   0x1B            AVC                                     1401.817                18,845                  3,302,160,863   17,966,115      
00043.M2TS      4352 (0x1100)   0x83            TrueHD          eng (English)           1401.817                2,033                   356,153,648     2,842,559       
00043.M2TS      4353 (0x1101)   0x83            TrueHD          jpn (Japanese)          1401.817                2,037                   356,974,758     2,860,515       
00043.M2TS      4608 (0x1200)   0x90            PGS             eng (English)           1401.817                24                      4,283,774       24,635          
00043.M2TS      4609 (0x1201)   0x90            PGS             eng (English)           1401.817                0                       34,904          197             

[/code]
<---- END FORUMS PASTE ---->

QUICK SUMMARY:

Disc Title: SAMURAI_CHAMPLOO_D2
Disc Size: 42,231,230,819 bytes
Protection: AACS
BD-Java: No
Playlist: 00035.MPLS
Size: 4,558,276,608 bytes
Length: 0:23:21.983
Total Bitrate: 26.01 Mbps
Video: MPEG-4 AVC Video / 18843 kbps / 1080p / 23.976 fps / 16:9 / High Profile 4.1
Audio: English / Dolby TrueHD Audio / 5.1 / 48 kHz / 1584 kbps / 16-bit (AC3 Embedded: 5.1 / 48 kHz / 448 kbps / DN -3dB)
Audio: Japanese / Dolby TrueHD Audio / 5.1 / 48 kHz / 1589 kbps / 16-bit (AC3 Embedded: 5.1 / 48 kHz / 448 kbps / DN -4dB)
Subtitle: English / 24.444 kbps
Subtitle: English / 0.199 kbps


********************
PLAYLIST: 00034.MPLS
********************

<--- BEGIN FORUMS PASTE --->
[code]
                                                                                                                Total   Video                                             
Title                                                           Codec   Length  Movie Size      Disc Size       Bitrate Bitrate Main Audio Track                          Secondary Audio Track
-----                                                           ------  ------- --------------  --------------  ------- ------- ------------------                        ---------------------
00034.MPLS                                                      AVC     0:23:21 4,542,849,024   42,231,230,819  25.92   19.03   Dolby TrueHD 5.1 1552Kbps (48kHz/16-bit)  
[/code]

[code]

DISC INFO:

Disc Title:     SAMURAI_CHAMPLOO_D2
Disc Size:      42,231,230,819 bytes
Protection:     AACS
BD-Java:        No
BDInfo:         0.5.8

PLAYLIST REPORT:

Name:                   00034.MPLS
Length:                 0:23:21.942 (h:m:s.ms)
Size:                   4,542,849,024 bytes
Total Bitrate:          25.92 Mbps

VIDEO:

Codec                   Bitrate             Description     
-----                   -------             -----------     
MPEG-4 AVC Video        19029 kbps          1080p / 23.976 fps / 16:9 / High Profile 4.1

AUDIO:

Codec                           Language        Bitrate         Description     
-----                           --------        -------         -----------     
Dolby TrueHD Audio              English         1552 kbps       5.1 / 48 kHz / 1552 kbps / 16-bit (AC3 Embedded: 5.1 / 48 kHz / 448 kbps / DN -6dB)
Dolby TrueHD Audio              Japanese        1563 kbps       5.1 / 48 kHz / 1563 kbps / 16-bit (AC3 Embedded: 5.1 / 48 kHz / 448 kbps / DN -5dB)

SUBTITLES:

Codec                           Language        Bitrate         Description     
-----                           --------        -------         -----------     
Presentation Graphics           English         32.290 kbps                     
Presentation Graphics           English         6.306 kbps                      

FILES:

Name            Time In         Length          Size            Total Bitrate   
----            -------         ------          ----            -------------   
00042.M2TS      0:00:00.000     0:23:21.942     4,542,849,024   25,923          

CHAPTERS:

Number          Time In         Length          Avg Video Rate  Max 1-Sec Rate  Max 1-Sec Time  Max 5-Sec Rate  Max 5-Sec Time  Max 10Sec Rate  Max 10Sec Time  Avg Frame Size  Max Frame Size  Max Frame Time  
------          -------         ------          --------------  --------------  --------------  --------------  --------------  --------------  --------------  --------------  --------------  --------------  
1               0:00:00.000     0:01:31.007     22,914 kbps     38,118 kbps     00:01:07.609    34,170 kbps     00:00:13.013    30,449 kbps     00:00:11.011    119,408 bytes   376,738 bytes   00:00:14.055    
2               0:01:31.007     0:09:34.865     19,869 kbps     35,293 kbps     00:04:42.407    26,015 kbps     00:04:42.115    24,705 kbps     00:02:35.446    103,587 bytes   394,406 bytes   00:11:03.996    
3               0:11:05.873     0:10:29.545     18,376 kbps     31,621 kbps     00:14:47.803    30,701 kbps     00:14:45.593    28,174 kbps     00:14:45.175    95,803 bytes    387,246 bytes   00:11:06.874    
4               0:21:35.419     0:01:46.523     15,042 kbps     26,404 kbps     00:23:14.810    24,429 kbps     00:23:14.351    21,100 kbps     00:23:09.221    78,452 bytes    279,645 bytes   00:22:36.188    

STREAM DIAGNOSTICS:

File            PID             Type            Codec           Language                Seconds                 Bitrate                 Bytes           Packets         
----            ---             ----            -----           --------                --------------          --------------          -------------   -----           
00042.M2TS      4113 (0x1011)   0x1B            AVC                                     1401.775                19,032                  3,334,743,541   18,143,232      
00042.M2TS      4352 (0x1100)   0x83            TrueHD          eng (English)           1401.775                2,000                   350,432,536     2,693,258       
00042.M2TS      4353 (0x1101)   0x83            TrueHD          jpn (Japanese)          1401.775                2,011                   352,378,726     2,738,528       
00042.M2TS      4608 (0x1200)   0x90            PGS             eng (English)           1401.775                32                      5,658,518       32,486          
00042.M2TS      4609 (0x1201)   0x90            PGS             eng (English)           1401.775                6                       1,105,145       6,169           

[/code]
<---- END FORUMS PASTE ---->

QUICK SUMMARY:

Disc Title: SAMURAI_CHAMPLOO_D2
Disc Size: 42,231,230,819 bytes
Protection: AACS
BD-Java: No
Playlist: 00034.MPLS
Size: 4,542,849,024 bytes
Length: 0:23:21.942
Total Bitrate: 25.92 Mbps
Video: MPEG-4 AVC Video / 19029 kbps / 1080p / 23.976 fps / 16:9 / High Profile 4.1
Audio: English / Dolby TrueHD Audio / 5.1 / 48 kHz / 1552 kbps / 16-bit (AC3 Embedded: 5.1 / 48 kHz / 448 kbps / DN -6dB)
Audio: Japanese / Dolby TrueHD Audio / 5.1 / 48 kHz / 1563 kbps / 16-bit (AC3 Embedded: 5.1 / 48 kHz / 448 kbps / DN -5dB)
Subtitle: English / 32.290 kbps
Subtitle: English / 6.306 kbps


********************
PLAYLIST: 00031.MPLS
********************

<--- BEGIN FORUMS PASTE --->
[code]
                                                                                                                Total   Video                                             
Title                                                           Codec   Length  Movie Size      Disc Size       Bitrate Bitrate Main Audio Track                          Secondary Audio Track
-----                                                           ------  ------- --------------  --------------  ------- ------- ------------------                        ---------------------
00031.MPLS                                                      AVC     0:23:21 4,615,563,264   42,231,230,819  26.34   19.02   Dolby TrueHD 5.1 1648Kbps (48kHz/16-bit)  
[/code]

[code]

DISC INFO:

Disc Title:     SAMURAI_CHAMPLOO_D2
Disc Size:      42,231,230,819 bytes
Protection:     AACS
BD-Java:        No
BDInfo:         0.5.8

PLAYLIST REPORT:

Name:                   00031.MPLS
Length:                 0:23:21.858 (h:m:s.ms)
Size:                   4,615,563,264 bytes
Total Bitrate:          26.34 Mbps

VIDEO:

Codec                   Bitrate             Description     
-----                   -------             -----------     
MPEG-4 AVC Video        19024 kbps          1080p / 23.976 fps / 16:9 / High Profile 4.1

AUDIO:

Codec                           Language        Bitrate         Description     
-----                           --------        -------         -----------     
Dolby TrueHD Audio              English         1648 kbps       5.1 / 48 kHz / 1648 kbps / 16-bit (AC3 Embedded: 5.1 / 48 kHz / 448 kbps / DN -4dB)
Dolby TrueHD Audio              Japanese        1644 kbps       5.1 / 48 kHz / 1644 kbps / 16-bit (AC3 Embedded: 5.1 / 48 kHz / 448 kbps / DN -4dB)

SUBTITLES:

Codec                           Language        Bitrate         Description     
-----                           --------        -------         -----------     
Presentation Graphics           English         32.484 kbps                     
Presentation Graphics           English         6.318 kbps                      

FILES:

Name            Time In         Length          Size            Total Bitrate   
----            -------         ------          ----            -------------   
00039.M2TS      0:00:00.000     0:23:21.858     4,615,563,264   26,340          

CHAPTERS:

Number          Time In         Length          Avg Video Rate  Max 1-Sec Rate  Max 1-Sec Time  Max 5-Sec Rate  Max 5-Sec Time  Max 10Sec Rate  Max 10Sec Time  Avg Frame Size  Max Frame Size  Max Frame Time  
------          -------         ------          --------------  --------------  --------------  --------------  --------------  --------------  --------------  --------------  --------------  --------------  
1               0:00:00.000     0:01:31.049     22,404 kbps     36,594 kbps     00:01:07.609    33,542 kbps     00:00:13.013    29,806 kbps     00:00:11.011    116,752 bytes   374,049 bytes   00:00:14.055    
2               0:01:31.049     0:10:09.108     20,323 kbps     36,383 kbps     00:10:43.809    33,243 kbps     00:11:03.579    32,010 kbps     00:11:01.702    105,956 bytes   413,225 bytes   00:11:39.323    
3               0:11:40.157     0:09:55.553     17,966 kbps     27,468 kbps     00:20:37.569    25,302 kbps     00:20:36.735    23,334 kbps     00:20:37.152    93,665 bytes    400,506 bytes   00:11:42.159    
4               0:21:35.711     0:01:46.147     14,608 kbps     24,004 kbps     00:23:15.060    22,271 kbps     00:23:14.392    19,816 kbps     00:23:09.179    76,191 bytes    279,645 bytes   00:22:36.438    

STREAM DIAGNOSTICS:

File            PID             Type            Codec           Language                Seconds                 Bitrate                 Bytes           Packets         
----            ---             ----            -----           --------                --------------          --------------          -------------   -----           
00039.M2TS      4113 (0x1011)   0x1B            AVC                                     1401.692                19,026                  3,333,641,533   18,137,091      
00039.M2TS      4352 (0x1100)   0x83            TrueHD          eng (English)           1401.692                2,096                   367,222,256     2,902,856       
00039.M2TS      4353 (0x1101)   0x83            TrueHD          jpn (Japanese)          1401.692                2,092                   366,626,770     2,913,606       
00039.M2TS      4608 (0x1200)   0x90            PGS             eng (English)           1401.692                32                      5,692,175       32,656          
00039.M2TS      4609 (0x1201)   0x90            PGS             eng (English)           1401.692                6                       1,107,128       6,180           

[/code]
<---- END FORUMS PASTE ---->

QUICK SUMMARY:

Disc Title: SAMURAI_CHAMPLOO_D2
Disc Size: 42,231,230,819 bytes
Protection: AACS
BD-Java: No
Playlist: 00031.MPLS
Size: 4,615,563,264 bytes
Length: 0:23:21.858
Total Bitrate: 26.34 Mbps
Video: MPEG-4 AVC Video / 19024 kbps / 1080p / 23.976 fps / 16:9 / High Profile 4.1
Audio: English / Dolby TrueHD Audio / 5.1 / 48 kHz / 1648 kbps / 16-bit (AC3 Embedded: 5.1 / 48 kHz / 448 kbps / DN -4dB)
Audio: Japanese / Dolby TrueHD Audio / 5.1 / 48 kHz / 1644 kbps / 16-bit (AC3 Embedded: 5.1 / 48 kHz / 448 kbps / DN -4dB)
Subtitle: English / 32.484 kbps
Subtitle: English / 6.318 kbps


********************
PLAYLIST: 00033.MPLS
********************

<--- BEGIN FORUMS PASTE --->
[code]
                                                                                                                Total   Video                                             
Title                                                           Codec   Length  Movie Size      Disc Size       Bitrate Bitrate Main Audio Track                          Secondary Audio Track
-----                                                           ------  ------- --------------  --------------  ------- ------- ------------------                        ---------------------
00033.MPLS                                                      AVC     0:23:21 4,628,115,456   42,231,230,819  26.41   19.04   Dolby TrueHD 5.1 1651Kbps (48kHz/16-bit)  
[/code]

[code]

DISC INFO:

Disc Title:     SAMURAI_CHAMPLOO_D2
Disc Size:      42,231,230,819 bytes
Protection:     AACS
BD-Java:        No
BDInfo:         0.5.8

PLAYLIST REPORT:

Name:                   00033.MPLS
Length:                 0:23:21.858 (h:m:s.ms)
Size:                   4,628,115,456 bytes
Total Bitrate:          26.41 Mbps

VIDEO:

Codec                   Bitrate             Description     
-----                   -------             -----------     
MPEG-4 AVC Video        19041 kbps          1080p / 23.976 fps / 16:9 / High Profile 4.1

AUDIO:

Codec                           Language        Bitrate         Description     
-----                           --------        -------         -----------     
Dolby TrueHD Audio              English         1651 kbps       5.1 / 48 kHz / 1651 kbps / 16-bit (AC3 Embedded: 5.1 / 48 kHz / 448 kbps / DN -6dB)
Dolby TrueHD Audio              Japanese        1668 kbps       5.1 / 48 kHz / 1668 kbps / 16-bit (AC3 Embedded: 5.1 / 48 kHz / 448 kbps / DN -6dB)

SUBTITLES:

Codec                           Language        Bitrate         Description     
-----                           --------        -------         -----------     
Presentation Graphics           English         36.055 kbps                     
Presentation Graphics           English         6.522 kbps                      

FILES:

Name            Time In         Length          Size            Total Bitrate   
----            -------         ------          ----            -------------   
00041.M2TS      0:00:00.000     0:23:21.858     4,628,115,456   26,411          

CHAPTERS:

Number          Time In         Length          Avg Video Rate  Max 1-Sec Rate  Max 1-Sec Time  Max 5-Sec Rate  Max 5-Sec Time  Max 10Sec Rate  Max 10Sec Time  Avg Frame Size  Max Frame Size  Max Frame Time  
------          -------         ------          --------------  --------------  --------------  --------------  --------------  --------------  --------------  --------------  --------------  --------------  
1               0:00:00.000     0:01:31.049     22,463 kbps     36,575 kbps     00:01:07.734    33,650 kbps     00:00:13.013    29,946 kbps     00:00:11.011    117,056 bytes   367,750 bytes   00:01:08.068    
2               0:01:31.049     0:10:09.442     20,653 kbps     35,673 kbps     00:02:46.457    34,788 kbps     00:02:43.746    33,930 kbps     00:02:42.996    107,676 bytes   449,705 bytes   00:11:39.490    
3               0:11:40.491     0:09:54.510     17,699 kbps     34,941 kbps     00:15:15.331    26,859 kbps     00:15:12.286    25,237 kbps     00:15:14.038    92,277 bytes    306,463 bytes   00:20:30.771    
4               0:21:35.002     0:01:46.856     14,401 kbps     26,924 kbps     00:23:14.393    24,934 kbps     00:23:14.059    21,020 kbps     00:23:08.887    75,107 bytes    276,285 bytes   00:22:34.770    

STREAM DIAGNOSTICS:

File            PID             Type            Codec           Language                Seconds                 Bitrate                 Bytes           Packets         
----            ---             ----            -----           --------                --------------          --------------          -------------   -----           
00041.M2TS      4113 (0x1011)   0x1B            AVC                                     1401.692                19,044                  3,336,674,062   18,153,667      
00041.M2TS      4352 (0x1100)   0x83            TrueHD          eng (English)           1401.692                2,099                   367,760,000     2,900,560       
00041.M2TS      4353 (0x1101)   0x83            TrueHD          jpn (Japanese)          1401.692                2,117                   370,875,450     2,960,969       
00041.M2TS      4608 (0x1200)   0x90            PGS             eng (English)           1401.692                36                      6,318,073       36,176          
00041.M2TS      4609 (0x1201)   0x90            PGS             eng (English)           1401.692                7                       1,142,888       6,396           

[/code]
<---- END FORUMS PASTE ---->

QUICK SUMMARY:

Disc Title: SAMURAI_CHAMPLOO_D2
Disc Size: 42,231,230,819 bytes
Protection: AACS
BD-Java: No
Playlist: 00033.MPLS
Size: 4,628,115,456 bytes
Length: 0:23:21.858
Total Bitrate: 26.41 Mbps
Video: MPEG-4 AVC Video / 19041 kbps / 1080p / 23.976 fps / 16:9 / High Profile 4.1
Audio: English / Dolby TrueHD Audio / 5.1 / 48 kHz / 1651 kbps / 16-bit (AC3 Embedded: 5.1 / 48 kHz / 448 kbps / DN -6dB)
Audio: Japanese / Dolby TrueHD Audio / 5.1 / 48 kHz / 1668 kbps / 16-bit (AC3 Embedded: 5.1 / 48 kHz / 448 kbps / DN -6dB)
Subtitle: English / 36.055 kbps
Subtitle: English / 6.522 kbps


********************
PLAYLIST: 00028.MPLS
********************

<--- BEGIN FORUMS PASTE --->
[code]
                                                                                                                Total   Video                                             
Title                                                           Codec   Length  Movie Size      Disc Size       Bitrate Bitrate Main Audio Track                          Secondary Audio Track
-----                                                           ------  ------- --------------  --------------  ------- ------- ------------------                        ---------------------
00028.MPLS                                                      AVC     0:23:21 4,690,710,528   42,231,230,819  26.77   19.04   Dolby TrueHD 5.1 1731Kbps (48kHz/16-bit)  
[/code]

[code]

DISC INFO:

Disc Title:     SAMURAI_CHAMPLOO_D2
Disc Size:      42,231,230,819 bytes
Protection:     AACS
BD-Java:        No
BDInfo:         0.5.8

PLAYLIST REPORT:

Name:                   00028.MPLS
Length:                 0:23:21.775 (h:m:s.ms)
Size:                   4,690,710,528 bytes
Total Bitrate:          26.77 Mbps

VIDEO:

Codec                   Bitrate             Description     
-----                   -------             -----------     
MPEG-4 AVC Video        19043 kbps          1080p / 23.976 fps / 16:9 / High Profile 4.1

AUDIO:

Codec                           Language        Bitrate         Description     
-----                           --------        -------         -----------     
Dolby TrueHD Audio              English         1731 kbps       5.1 / 48 kHz / 1731 kbps / 16-bit (AC3 Embedded: 5.1 / 48 kHz / 448 kbps / DN -8dB)
Dolby TrueHD Audio              Japanese        1744 kbps       5.1 / 48 kHz / 1744 kbps / 16-bit (AC3 Embedded: 5.1 / 48 kHz / 448 kbps / DN -8dB)

SUBTITLES:

Codec                           Language        Bitrate         Description     
-----                           --------        -------         -----------     
Presentation Graphics           English         41.007 kbps                     
Presentation Graphics           English         6.274 kbps                      

FILES:

Name            Time In         Length          Size            Total Bitrate   
----            -------         ------          ----            -------------   
00036.M2TS      0:00:00.000     0:23:21.775     4,690,710,528   26,770          

CHAPTERS:

Number          Time In         Length          Avg Video Rate  Max 1-Sec Rate  Max 1-Sec Time  Max 5-Sec Rate  Max 5-Sec Time  Max 10Sec Rate  Max 10Sec Time  Avg Frame Size  Max Frame Size  Max Frame Time  
------          -------         ------          --------------  --------------  --------------  --------------  --------------  --------------  --------------  --------------  --------------  --------------  
1               0:00:00.000     0:01:31.007     22,267 kbps     36,542 kbps     00:01:07.609    33,735 kbps     00:00:12.887    29,913 kbps     00:00:11.011    116,039 bytes   365,979 bytes   00:00:14.055    
2               0:01:31.007     0:09:07.505     18,845 kbps     30,656 kbps     00:02:56.676    25,984 kbps     00:02:56.759    24,551 kbps     00:02:53.047    98,248 bytes    322,368 bytes   00:06:05.990    
3               0:10:38.512     0:10:56.530     19,519 kbps     30,314 kbps     00:13:08.412    27,115 kbps     00:13:04.992    25,878 kbps     00:13:00.029    101,765 bytes   280,459 bytes   00:13:07.036    
4               0:21:35.043     0:01:46.731     14,379 kbps     29,150 kbps     00:23:13.016    27,470 kbps     00:23:09.137    23,823 kbps     00:23:04.299    74,994 bytes    307,637 bytes   00:23:11.181    

STREAM DIAGNOSTICS:

File            PID             Type            Codec           Language                Seconds                 Bitrate                 Bytes           Packets         
----            ---             ----            -----           --------                --------------          --------------          -------------   -----           
00036.M2TS      4113 (0x1011)   0x1B            AVC                                     1401.609                19,045                  3,336,730,778   18,153,896      
00036.M2TS      4352 (0x1100)   0x83            TrueHD          eng (English)           1401.609                2,179                   381,760,524     3,064,177       
00036.M2TS      4353 (0x1101)   0x83            TrueHD          jpn (Japanese)          1401.609                2,192                   384,023,690     3,118,451       
00036.M2TS      4608 (0x1200)   0x90            PGS             eng (English)           1401.609                41                      7,185,393       41,107          
00036.M2TS      4609 (0x1201)   0x90            PGS             eng (English)           1401.609                6                       1,099,394       6,145           

[/code]
<---- END FORUMS PASTE ---->

QUICK SUMMARY:

Disc Title: SAMURAI_CHAMPLOO_D2
Disc Size: 42,231,230,819 bytes
Protection: AACS
BD-Java: No
Playlist: 00028.MPLS
Size: 4,690,710,528 bytes
Length: 0:23:21.775
Total Bitrate: 26.77 Mbps
Video: MPEG-4 AVC Video / 19043 kbps / 1080p / 23.976 fps / 16:9 / High Profile 4.1
Audio: English / Dolby TrueHD Audio / 5.1 / 48 kHz / 1731 kbps / 16-bit (AC3 Embedded: 5.1 / 48 kHz / 448 kbps / DN -8dB)
Audio: Japanese / Dolby TrueHD Audio / 5.1 / 48 kHz / 1744 kbps / 16-bit (AC3 Embedded: 5.1 / 48 kHz / 448 kbps / DN -8dB)
Subtitle: English / 41.007 kbps
Subtitle: English / 6.274 kbps


********************
PLAYLIST: 00036.MPLS
********************

<--- BEGIN FORUMS PASTE --->
[code]
                                                                                                                Total   Video                                             
Title                                                           Codec   Length  Movie Size      Disc Size       Bitrate Bitrate Main Audio Track                          Secondary Audio Track
-----                                                           ------  ------- --------------  --------------  ------- ------- ------------------                        ---------------------
00036.MPLS                                                      AVC     0:23:21 4,607,121,408   42,231,230,819  26.29   19.03   Dolby TrueHD 5.1 1614Kbps (48kHz/16-bit)  
[/code]

[code]

DISC INFO:

Disc Title:     SAMURAI_CHAMPLOO_D2
Disc Size:      42,231,230,819 bytes
Protection:     AACS
BD-Java:        No
BDInfo:         0.5.8

PLAYLIST REPORT:

Name:                   00036.MPLS
Length:                 0:23:21.733 (h:m:s.ms)
Size:                   4,607,121,408 bytes
Total Bitrate:          26.29 Mbps

VIDEO:

Codec                   Bitrate             Description     
-----                   -------             -----------     
MPEG-4 AVC Video        19027 kbps          1080p / 23.976 fps / 16:9 / High Profile 4.1

AUDIO:

Codec                           Language        Bitrate         Description     
-----                           --------        -------         -----------     
Dolby TrueHD Audio              English         1614 kbps       5.1 / 48 kHz / 1614 kbps / 16-bit (AC3 Embedded: 5.1 / 48 kHz / 448 kbps / DN -8dB)
Dolby TrueHD Audio              Japanese        1638 kbps       5.1 / 48 kHz / 1638 kbps / 16-bit (AC3 Embedded: 5.1 / 48 kHz / 448 kbps / DN -8dB)

SUBTITLES:

Codec                           Language        Bitrate         Description     
-----                           --------        -------         -----------     
Presentation Graphics           English         45.841 kbps                     
Presentation Graphics           English         7.283 kbps                      

FILES:

Name            Time In         Length          Size            Total Bitrate   
----            -------         ------          ----            -------------   
00044.M2TS      0:00:00.000     0:23:21.733     4,607,121,408   26,294          

CHAPTERS:

Number          Time In         Length          Avg Video Rate  Max 1-Sec Rate  Max 1-Sec Time  Max 5-Sec Rate  Max 5-Sec Time  Max 10Sec Rate  Max 10Sec Time  Avg Frame Size  Max Frame Size  Max Frame Time  
------          -------         ------          --------------  --------------  --------------  --------------  --------------  --------------  --------------  --------------  --------------  --------------  
1               0:00:00.000     0:01:31.007     23,685 kbps     37,580 kbps     00:01:07.734    35,037 kbps     00:00:13.013    31,379 kbps     00:00:11.011    123,426 bytes   387,400 bytes   00:01:08.068    
2               0:01:31.007     0:09:10.550     19,240 kbps     28,402 kbps     00:10:35.259    25,884 kbps     00:10:31.422    24,683 kbps     00:10:26.876    100,307 bytes   296,497 bytes   00:06:56.624    
3               0:10:41.557     0:10:53.986     18,797 kbps     26,968 kbps     00:13:12.249    25,962 kbps     00:14:34.331    24,971 kbps     00:14:30.035    98,000 bytes    293,821 bytes   00:19:10.148    
4               0:21:35.544     0:01:46.189     15,351 kbps     23,823 kbps     00:23:14.935    22,408 kbps     00:23:14.267    20,338 kbps     00:23:09.054    80,066 bytes    284,516 bytes   00:22:31.099    

STREAM DIAGNOSTICS:

File            PID             Type            Codec           Language                Seconds                 Bitrate                 Bytes           Packets         
----            ---             ----            -----           --------                --------------          --------------          -------------   -----           
00044.M2TS      4113 (0x1011)   0x1B            AVC                                     1401.567                19,030                  3,333,899,459   18,138,613      
00044.M2TS      4352 (0x1100)   0x83            TrueHD          eng (English)           1401.567                2,062                   361,254,042     2,843,485       
00044.M2TS      4353 (0x1101)   0x83            TrueHD          jpn (Japanese)          1401.567                2,086                   365,511,516     2,913,046       
00044.M2TS      4608 (0x1200)   0x90            PGS             eng (English)           1401.567                46                      8,032,177       46,064          
00044.M2TS      4609 (0x1201)   0x90            PGS             eng (English)           1401.567                7                       1,276,100       7,226           

[/code]
<---- END FORUMS PASTE ---->

QUICK SUMMARY:

Disc Title: SAMURAI_CHAMPLOO_D2
Disc Size: 42,231,230,819 bytes
Protection: AACS
BD-Java: No
Playlist: 00036.MPLS
Size: 4,607,121,408 bytes
Length: 0:23:21.733
Total Bitrate: 26.29 Mbps
Video: MPEG-4 AVC Video / 19027 kbps / 1080p / 23.976 fps / 16:9 / High Profile 4.1
Audio: English / Dolby TrueHD Audio / 5.1 / 48 kHz / 1614 kbps / 16-bit (AC3 Embedded: 5.1 / 48 kHz / 448 kbps / DN -8dB)
Audio: Japanese / Dolby TrueHD Audio / 5.1 / 48 kHz / 1638 kbps / 16-bit (AC3 Embedded: 5.1 / 48 kHz / 448 kbps / DN -8dB)
Subtitle: English / 45.841 kbps
Subtitle: English / 7.283 kbps


********************
PLAYLIST: 00030.MPLS
********************

<--- BEGIN FORUMS PASTE --->
[code]
                                                                                                                Total   Video                                             
Title                                                           Codec   Length  Movie Size      Disc Size       Bitrate Bitrate Main Audio Track                          Secondary Audio Track
-----                                                           ------  ------- --------------  --------------  ------- ------- ------------------                        ---------------------
00030.MPLS                                                      AVC     0:23:21 4,690,010,112   42,231,230,819  26.77   19.07   Dolby TrueHD 5.1 1695Kbps (48kHz/16-bit)  
[/code]

[code]

DISC INFO:

Disc Title:     SAMURAI_CHAMPLOO_D2
Disc Size:      42,231,230,819 bytes
Protection:     AACS
BD-Java:        No
BDInfo:         0.5.8

PLAYLIST REPORT:

Name:                   00030.MPLS
Length:                 0:23:21.358 (h:m:s.ms)
Size:                   4,690,010,112 bytes
Total Bitrate:          26.77 Mbps

VIDEO:

Codec                   Bitrate             Description     
-----                   -------             -----------     
MPEG-4 AVC Video        19073 kbps          1080p / 23.976 fps / 16:9 / High Profile 4.1

AUDIO:

Codec                           Language        Bitrate         Description     
-----                           --------        -------         -----------     
Dolby TrueHD Audio              English         1695 kbps       5.1 / 48 kHz / 1695 kbps / 16-bit (AC3 Embedded: 5.1 / 48 kHz / 448 kbps / DN -7dB)
Dolby TrueHD Audio              Japanese        1675 kbps       5.1 / 48 kHz / 1675 kbps / 16-bit (AC3 Embedded: 5.1 / 48 kHz / 448 kbps / DN -8dB)

SUBTITLES:

Codec                           Language        Bitrate         Description     
-----                           --------        -------         -----------     
Presentation Graphics           English         48.898 kbps                     
Presentation Graphics           English         2.833 kbps                      

FILES:

Name            Time In         Length          Size            Total Bitrate   
----            -------         ------          ----            -------------   
00038.M2TS      0:00:00.000     0:23:21.358     4,690,010,112   26,774          

CHAPTERS:

Number          Time In         Length          Avg Video Rate  Max 1-Sec Rate  Max 1-Sec Time  Max 5-Sec Rate  Max 5-Sec Time  Max 10Sec Rate  Max 10Sec Time  Avg Frame Size  Max Frame Size  Max Frame Time  
------          -------         ------          --------------  --------------  --------------  --------------  --------------  --------------  --------------  --------------  --------------  --------------  
1               0:00:00.000     0:01:31.007     22,170 kbps     36,943 kbps     00:01:07.776    33,295 kbps     00:00:13.013    29,588 kbps     00:00:11.011    115,533 bytes   366,242 bytes   00:01:08.068    
2               0:01:31.007     0:08:46.734     19,896 kbps     36,554 kbps     00:08:27.340    28,096 kbps     00:05:39.714    26,880 kbps     00:05:39.505    103,728 bytes   452,047 bytes   00:10:15.489    
3               0:10:17.742     0:10:03.519     19,521 kbps     36,466 kbps     00:13:20.591    25,772 kbps     00:13:20.508    24,688 kbps     00:13:20.591    101,772 bytes   330,775 bytes   00:13:31.602    
4               0:20:21.261     0:03:00.096     13,599 kbps     24,377 kbps     00:20:48.455    23,221 kbps     00:20:44.451    20,273 kbps     00:21:46.596    70,913 bytes    321,206 bytes   00:20:31.396    

STREAM DIAGNOSTICS:

File            PID             Type            Codec           Language                Seconds                 Bitrate                 Bytes           Packets         
----            ---             ----            -----           --------                --------------          --------------          -------------   -----           
00038.M2TS      4113 (0x1011)   0x1B            AVC                                     1401.191                19,075                  3,340,969,784   18,177,053      
00038.M2TS      4352 (0x1100)   0x83            TrueHD          eng (English)           1401.191                2,144                   375,474,376     3,083,587       
00038.M2TS      4353 (0x1101)   0x83            TrueHD          jpn (Japanese)          1401.191                2,124                   371,970,062     3,067,867       
00038.M2TS      4608 (0x1200)   0x90            PGS             eng (English)           1401.191                49                      8,565,534       48,813          
00038.M2TS      4609 (0x1201)   0x90            PGS             eng (English)           1401.191                3                       496,327         2,834           

[/code]
<---- END FORUMS PASTE ---->

QUICK SUMMARY:

Disc Title: SAMURAI_CHAMPLOO_D2
Disc Size: 42,231,230,819 bytes
Protection: AACS
BD-Java: No
Playlist: 00030.MPLS
Size: 4,690,010,112 bytes
Length: 0:23:21.358
Total Bitrate: 26.77 Mbps
Video: MPEG-4 AVC Video / 19073 kbps / 1080p / 23.976 fps / 16:9 / High Profile 4.1
Audio: English / Dolby TrueHD Audio / 5.1 / 48 kHz / 1695 kbps / 16-bit (AC3 Embedded: 5.1 / 48 kHz / 448 kbps / DN -7dB)
Audio: Japanese / Dolby TrueHD Audio / 5.1 / 48 kHz / 1675 kbps / 16-bit (AC3 Embedded: 5.1 / 48 kHz / 448 kbps / DN -8dB)
Subtitle: English / 48.898 kbps
Subtitle: English / 2.833 kbps


********************
PLAYLIST: 00032.MPLS
********************

<--- BEGIN FORUMS PASTE --->
[code]
                                                                                                                Total   Video                                             
Title                                                           Codec   Length  Movie Size      Disc Size       Bitrate Bitrate Main Audio Track                          Secondary Audio Track
-----                                                           ------  ------- --------------  --------------  ------- ------- ------------------                        ---------------------
00032.MPLS                                                      AVC     0:23:21 4,607,784,960   42,231,230,819  26.31   19.04   Dolby TrueHD 5.1 1618Kbps (48kHz/16-bit)  
[/code]

[code]

DISC INFO:

Disc Title:     SAMURAI_CHAMPLOO_D2
Disc Size:      42,231,230,819 bytes
Protection:     AACS
BD-Java:        No
BDInfo:         0.5.8

PLAYLIST REPORT:

Name:                   00032.MPLS
Length:                 0:23:21.274 (h:m:s.ms)
Size:                   4,607,784,960 bytes
Total Bitrate:          26.31 Mbps

VIDEO:

Codec                   Bitrate             Description     
-----                   -------             -----------     
MPEG-4 AVC Video        19042 kbps          1080p / 23.976 fps / 16:9 / High Profile 4.1

AUDIO:

Codec                           Language        Bitrate         Description     
-----                           --------        -------         -----------     
Dolby TrueHD Audio              English         1618 kbps       5.1 / 48 kHz / 1618 kbps / 16-bit (AC3 Embedded: 5.1 / 48 kHz / 448 kbps / DN -3dB)
Dolby TrueHD Audio              Japanese        1616 kbps       5.1 / 48 kHz / 1616 kbps / 16-bit (AC3 Embedded: 5.1 / 48 kHz / 448 kbps / DN -4dB)

SUBTITLES:

Codec                           Language        Bitrate         Description     
-----                           --------        -------         -----------     
Presentation Graphics           English         23.653 kbps                     
Presentation Graphics           English         9.313 kbps                      

FILES:

Name            Time In         Length          Size            Total Bitrate   
----            -------         ------          ----            -------------   
00040.M2TS      0:00:00.000     0:23:21.274     4,607,784,960   26,306          

CHAPTERS:

Number          Time In         Length          Avg Video Rate  Max 1-Sec Rate  Max 1-Sec Time  Max 5-Sec Rate  Max 5-Sec Time  Max 10Sec Rate  Max 10Sec Time  Avg Frame Size  Max Frame Size  Max Frame Time  
------          -------         ------          --------------  --------------  --------------  --------------  --------------  --------------  --------------  --------------  --------------  --------------  
1               0:00:00.000     0:01:31.049     22,451 kbps     36,294 kbps     00:01:07.734    33,626 kbps     00:00:13.013    29,862 kbps     00:00:11.011    116,993 bytes   377,154 bytes   00:01:08.068    
2               0:01:31.049     0:10:34.050     20,223 kbps     36,391 kbps     00:10:20.870    33,285 kbps     00:10:40.014    32,060 kbps     00:10:35.384    105,431 bytes   465,231 bytes   00:12:03.055    
3               0:12:05.099     0:09:29.610     18,006 kbps     26,455 kbps     00:16:46.964    25,188 kbps     00:17:55.282    23,972 kbps     00:17:50.277    93,875 bytes    436,169 bytes   00:12:06.100    
4               0:21:34.710     0:01:46.564     14,644 kbps     26,652 kbps     00:23:14.059    24,542 kbps     00:23:13.725    20,937 kbps     00:23:08.470    76,375 bytes    279,645 bytes   00:22:35.437    

STREAM DIAGNOSTICS:

File            PID             Type            Codec           Language                Seconds                 Bitrate                 Bytes           Packets         
----            ---             ----            -----           --------                --------------          --------------          -------------   -----           
00040.M2TS      4113 (0x1011)   0x1B            AVC                                     1401.108                19,044                  3,335,393,542   18,146,674      
00040.M2TS      4352 (0x1100)   0x83            TrueHD          eng (English)           1401.108                2,066                   361,853,554     2,888,940       
00040.M2TS      4353 (0x1101)   0x83            TrueHD          jpn (Japanese)          1401.108                2,064                   361,568,672     2,883,242       
00040.M2TS      4608 (0x1200)   0x90            PGS             eng (English)           1401.108                24                      4,142,978       23,825          
00040.M2TS      4609 (0x1201)   0x90            PGS             eng (English)           1401.108                9                       1,631,302       9,216           

[/code]
<---- END FORUMS PASTE ---->

QUICK SUMMARY:

Disc Title: SAMURAI_CHAMPLOO_D2
Disc Size: 42,231,230,819 bytes
Protection: AACS
BD-Java: No
Playlist: 00032.MPLS
Size: 4,607,784,960 bytes
Length: 0:23:21.274
Total Bitrate: 26.31 Mbps
Video: MPEG-4 AVC Video / 19042 kbps / 1080p / 23.976 fps / 16:9 / High Profile 4.1
Audio: English / Dolby TrueHD Audio / 5.1 / 48 kHz / 1618 kbps / 16-bit (AC3 Embedded: 5.1 / 48 kHz / 448 kbps / DN -3dB)
Audio: Japanese / Dolby TrueHD Audio / 5.1 / 48 kHz / 1616 kbps / 16-bit (AC3 Embedded: 5.1 / 48 kHz / 448 kbps / DN -4dB)
Subtitle: English / 23.653 kbps
Subtitle: English / 9.313 kbps


********************
PLAYLIST: 00029.MPLS
********************

<--- BEGIN FORUMS PASTE --->
[code]
                                                                                                                Total   Video                                             
Title                                                           Codec   Length  Movie Size      Disc Size       Bitrate Bitrate Main Audio Track                          Secondary Audio Track
-----                                                           ------  ------- --------------  --------------  ------- ------- ------------------                        ---------------------
00029.MPLS                                                      AVC     0:23:20 4,799,815,680   42,231,230,819  27.41   19.03   Dolby TrueHD 5.1 1830Kbps (48kHz/16-bit)  
[/code]

[code]

DISC INFO:

Disc Title:     SAMURAI_CHAMPLOO_D2
Disc Size:      42,231,230,819 bytes
Protection:     AACS
BD-Java:        No
BDInfo:         0.5.8

PLAYLIST REPORT:

Name:                   00029.MPLS
Length:                 0:23:20.982 (h:m:s.ms)
Size:                   4,799,815,680 bytes
Total Bitrate:          27.41 Mbps

VIDEO:

Codec                   Bitrate             Description     
-----                   -------             -----------     
MPEG-4 AVC Video        19033 kbps          1080p / 23.976 fps / 16:9 / High Profile 4.1

AUDIO:

Codec                           Language        Bitrate         Description     
-----                           --------        -------         -----------     
Dolby TrueHD Audio              English         1830 kbps       5.1 / 48 kHz / 1830 kbps / 16-bit (AC3 Embedded: 5.1 / 48 kHz / 448 kbps / DN -8dB)
Dolby TrueHD Audio              Japanese        1827 kbps       5.1 / 48 kHz / 1827 kbps / 16-bit (AC3 Embedded: 5.1 / 48 kHz / 448 kbps / DN -7dB)

SUBTITLES:

Codec                           Language        Bitrate         Description     
-----                           --------        -------         -----------     
Presentation Graphics           English         40.395 kbps                     
Presentation Graphics           English         6.271 kbps                      

FILES:

Name            Time In         Length          Size            Total Bitrate   
----            -------         ------          ----            -------------   
00037.M2TS      0:00:00.000     0:23:20.982     4,799,815,680   27,408          

CHAPTERS:

Number          Time In         Length          Avg Video Rate  Max 1-Sec Rate  Max 1-Sec Time  Max 5-Sec Rate  Max 5-Sec Time  Max 10Sec Rate  Max 10Sec Time  Avg Frame Size  Max Frame Size  Max Frame Time  
------          -------         ------          --------------  --------------  --------------  --------------  --------------  --------------  --------------  --------------  --------------  --------------  
1               0:00:00.000     0:01:31.007     24,430 kbps     39,008 kbps     00:01:07.692    36,012 kbps     00:00:13.013    32,332 kbps     00:00:11.011    127,307 bytes   393,273 bytes   00:00:14.055    
2               0:01:31.007     0:09:08.339     19,591 kbps     32,212 kbps     00:10:36.510    28,057 kbps     00:05:00.967    25,720 kbps     00:04:58.589    102,141 bytes   640,266 bytes   00:10:38.387    
3               0:10:39.347     0:10:55.529     18,341 kbps     25,755 kbps     00:13:08.245    25,091 kbps     00:13:05.785    21,338 kbps     00:13:00.946    95,623 bytes    596,470 bytes   00:10:41.057    
4               0:21:34.876     0:01:46.106     15,794 kbps     24,004 kbps     00:23:14.726    22,665 kbps     00:23:13.558    20,761 kbps     00:23:08.345    82,376 bytes    289,517 bytes   00:22:40.776    

STREAM DIAGNOSTICS:

File            PID             Type            Codec           Language                Seconds                 Bitrate                 Bytes           Packets         
----            ---             ----            -----           --------                --------------          --------------          -------------   -----           
00037.M2TS      4113 (0x1011)   0x1B            AVC                                     1400.816                19,035                  3,333,151,645   18,134,613      
00037.M2TS      4352 (0x1100)   0x83            TrueHD          eng (English)           1400.816                2,278                   398,868,024     3,391,084       
00037.M2TS      4353 (0x1101)   0x83            TrueHD          jpn (Japanese)          1400.816                2,275                   398,394,960     3,379,594       
00037.M2TS      4608 (0x1200)   0x90            PGS             eng (English)           1400.816                40                      7,074,004       40,642          
00037.M2TS      4609 (0x1201)   0x90            PGS             eng (English)           1400.816                6                       1,098,135       6,138           

[/code]
<---- END FORUMS PASTE ---->

QUICK SUMMARY:

Disc Title: SAMURAI_CHAMPLOO_D2
Disc Size: 42,231,230,819 bytes
Protection: AACS
BD-Java: No
Playlist: 00029.MPLS
Size: 4,799,815,680 bytes
Length: 0:23:20.982
Total Bitrate: 27.41 Mbps
Video: MPEG-4 AVC Video / 19033 kbps / 1080p / 23.976 fps / 16:9 / High Profile 4.1
Audio: English / Dolby TrueHD Audio / 5.1 / 48 kHz / 1830 kbps / 16-bit (AC3 Embedded: 5.1 / 48 kHz / 448 kbps / DN -8dB)
Audio: Japanese / Dolby TrueHD Audio / 5.1 / 48 kHz / 1827 kbps / 16-bit (AC3 Embedded: 5.1 / 48 kHz / 448 kbps / DN -7dB)
Subtitle: English / 40.395 kbps
Subtitle: English / 6.271 kbps


********************
PLAYLIST: 00006.MPLS
********************

<--- BEGIN FORUMS PASTE --->
[code]
                                                                                                                Total   Video                                             
Title                                                           Codec   Length  Movie Size      Disc Size       Bitrate Bitrate Main Audio Track                          Secondary Audio Track
-----                                                           ------  ------- --------------  --------------  ------- ------- ------------------                        ---------------------
00006.MPLS                                                      AVC     0:00:32 51,609,600      42,231,230,819  12.85   12.01   DD AC3 2.0 192Kbps                        
[/code]

[code]

DISC INFO:

Disc Title:     SAMURAI_CHAMPLOO_D2
Disc Size:      42,231,230,819 bytes
Protection:     AACS
BD-Java:        No
BDInfo:         0.5.8

PLAYLIST REPORT:

Name:                   00006.MPLS
Length:                 0:00:32.132 (h:m:s.ms)
Size:                   51,609,600 bytes
Total Bitrate:          12.85 Mbps

VIDEO:

Codec                   Bitrate             Description     
-----                   -------             -----------     
MPEG-4 AVC Video        12006 kbps          1080i / 29.970 fps / 16:9 / High Profile 4.1

AUDIO:

Codec                           Language        Bitrate         Description     
-----                           --------        -------         -----------     
Dolby Digital Audio             English         192 kbps        2.0 / 48 kHz / 192 kbps / DN -4dB

FILES:

Name            Time In         Length          Size            Total Bitrate   
----            -------         ------          ----            -------------   
00005.M2TS      0:00:00.000     0:00:32.132     51,609,600      12,849          

CHAPTERS:

Number          Time In         Length          Avg Video Rate  Max 1-Sec Rate  Max 1-Sec Time  Max 5-Sec Rate  Max 5-Sec Time  Max 10Sec Rate  Max 10Sec Time  Avg Frame Size  Max Frame Size  Max Frame Time  
------          -------         ------          --------------  --------------  --------------  --------------  --------------  --------------  --------------  --------------  --------------  --------------  
1               0:00:00.000     0:00:32.132     12,006 kbps     22,102 kbps     00:00:03.937    15,971 kbps     00:00:01.401    14,499 kbps     00:00:01.368    50,076 bytes    363,324 bytes   00:00:27.827    

STREAM DIAGNOSTICS:

File            PID             Type            Codec           Language                Seconds                 Bitrate                 Bytes           Packets         
----            ---             ----            -----           --------                --------------          --------------          -------------   -----           
00005.M2TS      4113 (0x1011)   0x1B            AVC                                     31.999                  12,056                  48,222,939      262,663         
00005.M2TS      4352 (0x1100)   0x81            AC3             eng (English)           31.999                  193                     771,840         5,025           

[/code]
<---- END FORUMS PASTE ---->

QUICK SUMMARY:

Disc Title: SAMURAI_CHAMPLOO_D2
Disc Size: 42,231,230,819 bytes
Protection: AACS
BD-Java: No
Playlist: 00006.MPLS
Size: 51,609,600 bytes
Length: 0:00:32.132
Total Bitrate: 12.85 Mbps
Video: MPEG-4 AVC Video / 12006 kbps / 1080i / 29.970 fps / 16:9 / High Profile 4.1
Audio: English / Dolby Digital Audio / 2.0 / 48 kHz / 192 kbps / DN -4dB