General
Complete name                            : C:\Users\Wiener\Desktop\Hank Williams - Honky Tonk Blues - American Masters\VIDEO_TS\VTS_01_6.VOB
Format                                   : MPEG-PS
File size                                : 678 MiB
Duration                                 : 7 min 57 s
Overall bit rate mode                    : Variable
Overall bit rate                         : 11.9 Mb/s

Video
ID                                       : 224 (0xE0)
Format                                   : MPEG Video
Format version                           : Version 2
Format profile                           : [email protected]
Format settings                          : CustomMatrix / BVOP
Format settings, BVOP                    : Yes
Format settings, Matrix                  : Custom
Format settings, GOP                     : M=3, N=15
Format settings, picture structure       : Frame
Duration                                 : 7 min 57 s
Bit rate mode                            : Variable
Bit rate                                 : 10.1 Mb/s
Maximum bit rate                         : 8 260 kb/s
Width                                    : 720 pixels
Height                                   : 480 pixels
Display aspect ratio                     : 16:9
Frame rate                               : 29.970 (30000/1001) FPS
Standard                                 : NTSC
Color space                              : YUV
Chroma subsampling                       : 4:2:0
Bit depth                                : 8 bits
Scan type                                : Interlaced
Scan order                               : Top Field First
Compression mode                         : Lossy
Bits/(Pixel*Frame)                       : 0.978
Time code of first frame                 : 01:16:07:26
Time code source                         : Group of pictures header
GOP, Open/Closed                         : Open
Stream size                              : 577 MiB (85%)

Audio
ID                                       : 189 (0xBD)-160 (0xA0)
Format                                   : PCM
Format settings                          : Big / Signed
Muxing mode                              : DVD-Video
Duration                                 : 7 min 57 s
Bit rate mode                            : Constant
Bit rate                                 : 1 536 kb/s
Channel(s)                               : 2 channels
Sampling rate                            : 48.0 kHz
Bit depth                                : 16 bits
Delay relative to video                  : -335 ms
Stream size                              : 87.5 MiB (13%)

Menu