16/06/2020

https://www.themoviedb.org/movie/16312-mercy-mission-the-rescue-of-flight-771?
language=fr-FR

Info : Date de sortie initiale : 1993

================================================================================
Date de sortie initiale : 1993
Realisateur : Roger Young
Bande originale : Patrick Williams
Scenario : George Rubino
Montage : Benjamin A. Weissman

Traduit de l'anglais-Mercy Mission: le sauvetage du vol 771 est un telefilm de
1993 base sur le sauvetage reel du pilote dΓÇÖun Cessna 188. Il met en vedette 
Scott Bakula dans le role de Jay Perkins, pilote du Cessna 30771, et dans 
Robert Loggia dans le nom de Gordon Vette Pilote ANZ 308 qui le sauve                                                            *

================================================================================
*                        Fichiers contenus dans le post                        *
================================================================================
Sauvetage en plein vol.Mercymission.vhsrip.4.3.french.1993.mkv          01:56:17
================================================================================
* Duree totale du post .........: 01:56:17                                     *
* Taille totale du post ........: 2.94 Go                                      *
================================================================================

================================================================================
*        Sauvetage en plein vol.Mercymission.vhsrip.4.3.french.1993.mkv        *
================================================================================
* Format                        : Matroska                                     *
* Format version                : Version 4 / Version 2                        *
* File size                     : 2.94 GiB                                     *
* Duration                      : 1h 56mn                                      *
* Overall bit rate mode         : Variable                                     *
* Overall bit rate              : 3 625 Kbps                                   *
* Encoded date                  : UTC 2020-06-16 15:48:53                      *
* Writing application           : mkvmerge v30.1.0 ('Forever And More') 64-bit *
* Writing library               : libebml v1.3.6 + libmatroska v1.4.9          *
* ================================== Video =================================== *
* ID                            : 1                                            *
* Format                        : MPEG Video                                   *
* Format version                : Version 2                                    *
* Format profile                : [email protected]                                    *
* Format settings, BVOP         : No                                           *
* Format settings, Matrix       : Default                                      *
* Codec ID                      : V_MPEG2                                      *
* Codec ID/Info                 : MPEG 1 or 2 Video                            *
* Duration                      : 1h 56mn                                      *
* Bit rate mode                 : Variable                                     *
* Bit rate                      : 3 297 Kbps                                   *
* Maximum bit rate              : 9 578 Kbps                                   *
* Width                         : 720 pixels                                   *
* Height                        : 480 pixels                                   *
* Display aspect ratio          : 4:3                                          *
* Original display aspect ratio : 16:9                                         *
* Frame rate                    : 22.478 fps                                   *
* Original frame rate           : 29.970 fps                                   *
* Standard                      : NTSC                                         *
* Color space                   : YUV                                          *
* Chroma subsampling            : 4:2:0                                        *
* Bit depth                     : 8 bits                                       *
* Scan type                     : Interlaced                                   *
* Scan order                    : Top Field First                              *
* Compression mode              : Lossy                                        *
* Bits/(Pixel*Frame)            : 0.424                                        *
* Stream size                   : 2.68 GiB (91%)                               *
* Title                         : VHS                                          *
* Default                       : No                                           *
* Forced                        : No                                           *
* DURATION                      : 01:56:17.859000000                           *
* NUMBER_OF_FRAMES              : 156845                                       *
* NUMBER_OF_BYTES               : 2992857159                                   *
* _STATISTICS_WRITING_APP       : mkvmerge v30.1.0 ('Forever And More') 64-bit *
* _STATISTICS_WRITING_DATE_UTC  : 2020-06-16 15:48:53                          *
* _STATISTICS_TAGS              : BPS DURATION NUMBER_OF_FRAMES NUMBER_OF_BYTE *
* Color primaries               : BT.470-2 system M                            *
* Transfer characteristics      : BT.470-2 System M                            *
* Matrix coefficients           : SMPTE 170M                                   *
* ================================= Audio #1 ================================= *
* ID                            : 2                                            *
* Format                        : AC-3                                         *
* Format/Info                   : Audio Coding 3                               *
* Mode extension                : CM (complete main)                           *
* Format settings, Endianness   : Big                                          *
* Codec ID                      : A_AC3                                        *
* Duration                      : 1h 56mn                                      *
* Bit rate mode                 : Constant                                     *
* Bit rate                      : 256 Kbps                                     *
* Channel(s)                    : 2 channels                                   *
* Channel positions             : Front: L R                                   *
* Sampling rate                 : 48.0 KHz                                     *
* Bit depth                     : 16 bits                                      *
* Compression mode              : Lossy                                        *
* Delay relative to video       : 21ms                                         *
* Stream size                   : 213 MiB (7%)                                 *
* Title                         : Stéréo                                       *
* Language                      : French                                       *
* Default                       : Yes                                          *
* Forced                        : No                                           *
* DURATION                      : 01:27:13.146000000                           *
* NUMBER_OF_FRAMES              : 163460                                       *
* NUMBER_OF_BYTES               : 167383040                                    *
* _STATISTICS_WRITING_APP       : mkvmerge v30.1.0 ('Forever And More') 64-bit *
* _STATISTICS_WRITING_DATE_UTC  : 2020-06-16 15:48:53                          *
* _STATISTICS_TAGS              : BPS DURATION NUMBER_OF_FRAMES NUMBER_OF_BYTE *

================================================================================
*                           INFORMATION SUR LE POST                            *
================================================================================
* Taille des donnees sans par2..: 2.94 Go                                      *
* Nombre de rar.................: 40                                           *
* Taille des rar................: 76.54 Mo                                     *
* Par2..........................: 7%                                           *
* Nombre de bloc de recup.......: 289                                          *
* Taille d'un bloc..............: 750.00 Ko                                    *
* Nom a rechercher..............: 6857JV4813PBO094Q3L32M                       *
* Posteur.......................: [email protected]                            *
* Groupes.......................: a.b.french,a.b.movies.divx.french            *


pw : 2WU85N6