16/06/2020

https://www.themoviedb.org/movie/16312-mercy-mission-the-rescue-of-flight-771?
language=fr-FR

================================================================================
*                        Fichiers contenus dans le post                        *
================================================================================
Vol.93.tv.vhsrip.4.3.french.mkv                                         01:57:34
================================================================================
* Duree totale du post .........: 01:57:34                                     *
* Taille totale du post ........: 2.98 Go                                      *
================================================================================

================================================================================
*                       Vol.93.tv.vhsrip.4.3.french.mkv                        *
================================================================================
* Format                        : Matroska                                     *
* Format version                : Version 4 / Version 2                        *
* File size                     : 2.98 GiB                                     *
* Duration                      : 1h 57mn                                      *
* Overall bit rate mode         : Variable                                     *
* Overall bit rate              : 3 633 Kbps                                   *
* Encoded date                  : UTC 2020-06-16 15:21:19                      *
* Writing application           : mkvmerge v30.1.0 ('Forever And More') 64-bit *
* Writing library               : libebml v1.3.6 + libmatroska v1.4.9          *
* ================================== Video =================================== *
* ID                            : 1                                            *
* Format                        : MPEG Video                                   *
* Format version                : Version 2                                    *
* Format profile                : [email protected]                                    *
* Format settings, BVOP         : No                                           *
* Format settings, Matrix       : Default                                      *
* Codec ID                      : V_MPEG2                                      *
* Codec ID/Info                 : MPEG 1 or 2 Video                            *
* Duration                      : 1h 57mn                                      *
* Bit rate mode                 : Variable                                     *
* Bit rate                      : 3 304 Kbps                                   *
* Maximum bit rate              : 9 578 Kbps                                   *
* Width                         : 720 pixels                                   *
* Height                        : 480 pixels                                   *
* Display aspect ratio          : 4:3                                          *
* Original display aspect ratio : 16:9                                         *
* Frame rate                    : 22.478 fps                                   *
* Original frame rate           : 29.970 fps                                   *
* Standard                      : NTSC                                         *
* Color space                   : YUV                                          *
* Chroma subsampling            : 4:2:0                                        *
* Bit depth                     : 8 bits                                       *
* Scan type                     : Interlaced                                   *
* Scan order                    : Top Field First                              *
* Compression mode              : Lossy                                        *
* Bits/(Pixel*Frame)            : 0.425                                        *
* Stream size                   : 2.71 GiB (91%)                               *
* Default                       : No                                           *
* Forced                        : No                                           *
* DURATION                      : 01:57:34.024000000                           *
* NUMBER_OF_FRAMES              : 158557                                       *
* NUMBER_OF_BYTES               : 3032032615                                   *
* _STATISTICS_WRITING_APP       : mkvmerge v30.1.0 ('Forever And More') 64-bit *
* _STATISTICS_WRITING_DATE_UTC  : 2020-06-16 15:21:19                          *
* _STATISTICS_TAGS              : BPS DURATION NUMBER_OF_FRAMES NUMBER_OF_BYTE *
* Color primaries               : BT.470-2 system M                            *
* Transfer characteristics      : BT.470-2 System M                            *
* Matrix coefficients           : SMPTE 170M                                   *
* ================================= Audio #1 ================================= *
* ID                            : 2                                            *
* Format                        : AC-3                                         *
* Format/Info                   : Audio Coding 3                               *
* Mode extension                : CM (complete main)                           *
* Format settings, Endianness   : Big                                          *
* Codec ID                      : A_AC3                                        *
* Duration                      : 1h 57mn                                      *
* Bit rate mode                 : Constant                                     *
* Bit rate                      : 256 Kbps                                     *
* Channel(s)                    : 2 channels                                   *
* Channel positions             : Front: L R                                   *
* Sampling rate                 : 48.0 KHz                                     *
* Bit depth                     : 16 bits                                      *
* Compression mode              : Lossy                                        *
* Stream size                   : 215 MiB (7%)                                 *
* Title                         : Stéréo                                       *
* Language                      : French                                       *
* Default                       : Yes                                          *
* Forced                        : No                                           *
* DURATION                      : 01:28:10.243000000                           *
* NUMBER_OF_FRAMES              : 165255                                       *
* NUMBER_OF_BYTES               : 169221120                                    *
* _STATISTICS_WRITING_APP       : mkvmerge v30.1.0 ('Forever And More') 64-bit *
* _STATISTICS_WRITING_DATE_UTC  : 2020-06-16 15:21:19                          *
* _STATISTICS_TAGS              : BPS DURATION NUMBER_OF_FRAMES NUMBER_OF_BYTE *

================================================================================
*                           INFORMATION SUR LE POST                            *
================================================================================
* Taille des donnees sans par2..: 2.98 Go                                      *
* Nombre de rar.................: 40                                           *
* Taille des rar................: 76.54 Mo                                     *
* Par2..........................: 7%                                           *
* Nombre de bloc de recup.......: 292                                          *
* Taille d'un bloc..............: 750.00 Ko                                    *
* Nom a rechercher..............: N2HYOGXGCRNOYO4F4BK                          *
* Posteur.......................: [email protected]                            *
* Groupes.......................: a.b.french,a.b.movies.divx.french            *


pw : 4TA5ONT095TF