16/06/2020

http://www.allocine.fr/film/fichefilm_gen_cfilm=212746.html

================================================================================
* http://www.allocine.fr/film/fichefilm_gen_cfilm=212746.html                  *
*                                                                              *
* Titre          : The Presence                                                *
* Année de prod. : 2010                                                        *
* Avec           : Mira Sorvino, Shane West, Justin Kirk                       *
*                                                                              *
Une femme se rend dans une cabane isolée dans laquelle elle passait ses vacances
étant enfant. Les doux souvenirs d’été sont vite remplacés par un sentiment 
d’insécurité et des apparitions inquiétantes. Elle ressent une présence 
constante et malveillante qui a lΓÇÖair de ne pas vouloir la laisser en paix. 
Avec l’arrivée inattendue de son petit-ami, cet esprit devient agressif et les 
hante continuellement. Bientôt le comportement de la jeune femme devient étrange
la laissant dans un état mental entre la folie et la possession. Est-elle en 
train de combattre des démons intérieurs déformant ainsi la réalité ou cette 
menace de l’au-delà est-elle bien existante ?                                                   *

================================================================================
*                        Fichiers contenus dans le post                        *
================================================================================
The Presence 29 nov2011 .mkv                                            01:26:46
================================================================================
* Duree totale du post .........: 01:26:46                                     *
* Taille totale du post ........: 694.02 Mo                                    *
================================================================================

================================================================================
*                         The Presence 29 nov2011 .mkv                         *
================================================================================
* Format                        : Matroska                                     *
* Format version                : Version 4 / Version 2                        *
* File size                     : 694 MiB                                      *
* Duration                      : 1h 26mn                                      *
* Overall bit rate mode         : Variable                                     *
* Overall bit rate              : 1 118 Kbps                                   *
* Encoded date                  : UTC 2020-06-16 18:09:21                      *
* Writing application           : mkvmerge v30.1.0 ('Forever And More') 64-bit *
* Writing library               : libebml v1.3.6 + libmatroska v1.4.9          *
* DURATION                      : 01:26:46.080000000                           *
* NUMBER_OF_FRAMES              : 216920                                       *
* NUMBER_OF_BYTES               : 84401232                                     *
* _STATISTICS_WRITING_APP       : mkvmerge v30.1.0 ('Forever And More') 64-bit *
* _STATISTICS_WRITING_DATE_UTC  : 2020-06-16 18:09:21                          *
* _STATISTICS_TAGS              : BPS DURATION NUMBER_OF_FRAMES NUMBER_OF_BYTE *
* ================================== Video =================================== *
* ID                            : 1                                            *
* Format                        : MPEG-4 Visual                                *
* Format profile                : Advanced [email protected]                           *
* Format settings, BVOP         : Yes                                          *
* Format settings, QPel         : No                                           *
* Format settings, GMC          : No warppoints                                *
* Format settings, Matrix       : Default (H.263)                              *
* Codec ID                      : XVID                                         *
* Codec ID/Hint                 : XviD                                         *
* Duration                      : 1h 26mn                                      *
* Bit rate                      : 968 Kbps                                     *
* Width                         : 640 pixels                                   *
* Height                        : 256 pixels                                   *
* Display aspect ratio          : 2.500                                        *
* Frame rate                    : 23.976 fps                                   *
* Color space                   : YUV                                          *
* Chroma subsampling            : 4:2:0                                        *
* Bit depth                     : 8 bits                                       *
* Scan type                     : Progressive                                  *
* Compression mode              : Lossy                                        *
* Bits/(Pixel*Frame)            : 0.246                                        *
* Stream size                   : 601 MiB (87%)                                *
* Title                         : DVD                                          *
* Writing library               : XviD 64                                      *
* Default                       : Yes                                          *
* Forced                        : No                                           *
* ================================= Audio #1 ================================= *
* ID                            : 2                                            *
* Format                        : MPEG Audio                                   *
* Format version                : Version 1                                    *
* Format profile                : Layer 3                                      *
* Mode                          : Joint stereo                                 *
* Mode extension                : MS Stereo                                    *
* Codec ID                      : A_MPEG/L3                                    *
* Codec ID/Hint                 : MP3                                          *
* Duration                      : 1h 27mn                                      *
* Bit rate mode                 : Variable                                     *
* Bit rate                      : 128 Kbps                                     *
* Channel(s)                    : 2 channels                                   *
* Sampling rate                 : 48.0 KHz                                     *
* Compression mode              : Lossy                                        *
* Stream size                   : 80.5 MiB (12%)                               *
* Title                         : MP3                                          *
* Writing library               : LAME3.96r                                    *
* Language                      : French                                       *
* Default                       : Yes                                          *
* Forced                        : No                                           *

================================================================================
*                           INFORMATION SUR LE POST                            *
================================================================================
* Taille des donnees sans par2..: 694.02 Mo                                    *
* Nombre de rar.................: 21                                           *
* Taille des rar................: 33.69 Mo                                     *
* Par2..........................: 10%                                          *
* Nombre de bloc de recup.......: 190                                          *
* Taille d'un bloc..............: 375.00 Ko                                    *
* Nom a rechercher..............: R06Q20YC7MF8X0I04F621QC0U                    *
* Posteur.......................: [email protected]                            *
* Groupes.......................: a.b.french,a.b.movies.divx.french            *


pw : 0JA38R