Fonde en 1950 et s appuyant depuis la reunification sur la loi de protection de la Constitution allemande de 1990
l Office federal de protection de la Constitution (Bundesamt fur Verfassungsschutz) se veut un -systeme d alerte precoce- contre les menaces pesant sur la democratie.

Alors que ce service de renseignement cible depuis des decennies les groupes d extreme gauche et les islamistes radicaux ses detracteurs l ont recemment accuse d etre -aveugle de l oeil droit-.
Autrement dit de negliger la montee des violences imputees α lÆextreme droite.

L institution a en effet ete impuissante a dejouer la serie d attentats mortels perpetres entre 2000 et 2011 par le groupuscule neonazi -Nationalsozialistischer Untergrund- 
(NSU -Clandestinite nationale-socialiste-) suscitant la stupeur et une avalanche de critiques en Allemagne.

Apres un changement de cap l office federal s emploie egalement desormais a prevenir la menace virtuelle que representent les pirates informatiques et les -trollsû.
Aussi bien allemands qu etrangers propageant de fausses informations.

Comment ses services ont ils evolue ? 
Quels liens entretiennent ils avec leurs homologues des pays voisins ? 
Sont ils suffisamment armes pour affronter les perils du XXIe siΦcle ?

Pour cette enquete Christian H. Schulz et Rainald Becker ont obtenu un acces exclusif aux coulisses de cette agence aux missions ultraconfidentielles.



Complete name                  : Securite.Interieure.Surveiller.Pour.Proteger.(20201013)
Format                         : MPEG-4
Format profile                 : Base Media / Version 2
Codec ID                       : mp42 (isom/mp42)
File size                      : 1.38 GiB
Duration                       : 1 h 28 min
Overall bit rate mode          : Variable
Overall bit rate               : 2 219 kb/s
Encoded date                   : UTC 2020-10-11 20:15:20
Tagged date                    : UTC 2020-10-11 20:15:20

Video
ID                             : 1
Format                         : AVC
Format/Info                    : Advanced Video Codec
Format profile                 : [email protected]
Format settings                : CABAC / 3 Ref Frames
Format settings, CABAC         : Yes
Format settings, Reference fra : 3 frames
Codec ID                       : avc1
Codec ID/Info                  : Advanced Video Coding
Duration                       : 1 h 28 min
Bit rate mode                  : Variable
Bit rate                       : 2 089 kb/s
Maximum bit rate               : 2 200 kb/s
Width                          : 1 280 pixels
Height                         : 720 pixels
Display aspect ratio           : 16:9
Frame rate mode                : Constant
Frame rate                     : 25.000 FPS
Standard                       : PAL
Color space                    : YUV
Chroma subsampling             : 4:2:0
Bit depth                      : 8 bits
Scan type                      : Progressive
Bits/(Pixel*Frame)             : 0.091
Stream size                    : 1.30 GiB (94%)
Encoded date                   : UTC 2020-10-11 20:15:22
Tagged date                    : UTC 2020-10-11 20:15:22
Color range                    : Limited
Color primaries                : BT.709
Transfer characteristics       : BT.709
Matrix coefficients            : BT.709
Codec configuration box        : avcC

Audio
ID                             : 2
Format                         : AAC LC
Format/Info                    : Advanced Audio Codec Low Complexity
Codec ID                       : mp4a-40-2
Duration                       : 1 h 28 min
Bit rate mode                  : Variable
Bit rate                       : 125 kb/s
Maximum bit rate               : 174 kb/s
Channel(s)                     : 2 channels
Channel layout                 : L R
Sampling rate                  : 48.0 kHz
Frame rate                     : 46.875 FPS (1024 SPF)
Compression mode               : Lossy
Stream size                    : 79.6 MiB (6%)
Encoded date                   : UTC 2020-10-11 20:15:22
Tagged date                    : UTC 2020-10-11 20:15:22