31/12/2020

https://www.themoviedb.org/movie/10358-zack-and-miri-make-a-porno

================================================================================
*                        Fichiers contenus dans le post                        *
================================================================================
Zack.And.Miri.Make.A.Porno.2008.MULTi.VF2.1080p.BluRay.x264-PopHD.mkv   01:41:34
================================================================================
* Duree totale du post .........: 01:41:34                                     *
* Taille totale du post ........: 2.94 Go                                      *
================================================================================

================================================================================
*    Zack.And.Miri.Make.A.Porno.2008.MULTi.VF2.1080p.BluRay.x264-PopHD.mkv     *
================================================================================
* Format                        : Matroska                                     *
* Format version                : Version 4 / Version 2                        *
* File size                     : 2.94 GiB                                     *
* Duration                      : 1h 41mn                                      *
* Overall bit rate              : 4 141 Kbps                                   *
* Movie name                    : Zack and Miri Make a Porno (2008) PopHD      *
* Encoded date                  : UTC 2020-02-08 21:52:07                      *
* Writing application           : mkvmerge v8.2.0 ('World of Adventure') 64bit *
* Writing library               : libebml v1.3.1 + libmatroska v1.4.2          *
* DURATION                      : 01:41:32.640000000                           *
* NUMBER_OF_FRAMES              : 190395                                       *
* NUMBER_OF_BYTES               : 146223360                                    *
* _STATISTICS_WRITING_APP       : mkvmerge v8.2.0 ('World of Adventure') 64bit *
* _STATISTICS_WRITING_DATE_UTC  : 2020-02-08 21:52:07                          *
* _STATISTICS_TAGS              : BPS DURATION NUMBER_OF_FRAMES NUMBER_OF_BYTE *
* Attachment                    : Yes                                          *
* ================================== Video =================================== *
* ID                            : 1                                            *
* Format                        : AVC                                          *
* Format/Info                   : Advanced Video Codec                         *
* Format profile                : [email protected]                                    *
* Format settings, CABAC        : Yes                                          *
* Format settings, ReFrames     : 4 frames                                     *
* Codec ID                      : V_MPEG4/ISO/AVC                              *
* Duration                      : 1h 41mn                                      *
* Bit rate                      : 3 050 Kbps                                   *
* Width                         : 1 920 pixels                                 *
* Height                        : 1 080 pixels                                 *
* Display aspect ratio          : 16:9                                         *
* Frame rate                    : 23.976 fps                                   *
* Color space                   : YUV                                          *
* Chroma subsampling            : 4:2:0                                        *
* Bit depth                     : 8 bits                                       *
* Scan type                     : Progressive                                  *
* Bits/(Pixel*Frame)            : 0.061                                        *
* Stream size                   : 2.11 GiB (72%)                               *
* Title                         : Zack and Miri Make a Porno (2008) PopHD      *
* Writing library               : x264 core 148 r2643 5c65704                  *
* Default                       : Yes                                          *
* Forced                        : No                                           *
* Color primaries               : BT.709-5, BT.1361, IEC 61966-2-4, SMPTE RP17 *
* Transfer characteristics      : BT.709-5, BT.1361                            *
* Matrix coefficients           : BT.709-5, BT.1361, IEC 61966-2-4 709, SMPTE  *
* ================================= Audio #1 ================================= *
* ID                            : 2                                            *
* Format                        : AC-3                                         *
* Format/Info                   : Audio Coding 3                               *
* Mode extension                : CM (complete main)                           *
* Format settings, Endianness   : Big                                          *
* Codec ID                      : A_AC3                                        *
* Duration                      : 1h 41mn                                      *
* Bit rate mode                 : Constant                                     *
* Bit rate                      : 448 Kbps                                     *
* Channel(s)                    : 6 channels                                   *
* Channel positions             : Front: L C R, Side: L R, LFE                 *
* Sampling rate                 : 48.0 KHz                                     *
* Bit depth                     : 16 bits                                      *
* Compression mode              : Lossy                                        *
* Stream size                   : 325 MiB (11%)                                *
* Title                         : AC3-5.1-VFQ                                  *
* Language                      : French                                       *
* Default                       : Yes                                          *
* Forced                        : No                                           *
* ================================= Audio #2 ================================= *
* ID                            : 3                                            *
* Format                        : AC-3                                         *
* Format/Info                   : Audio Coding 3                               *
* Mode extension                : CM (complete main)                           *
* Format settings, Endianness   : Big                                          *
* Codec ID                      : A_AC3                                        *
* Duration                      : 1h 41mn                                      *
* Bit rate mode                 : Constant                                     *
* Bit rate                      : 448 Kbps                                     *
* Channel(s)                    : 6 channels                                   *
* Channel positions             : Front: L C R, Side: L R, LFE                 *
* Sampling rate                 : 48.0 KHz                                     *
* Bit depth                     : 16 bits                                      *
* Compression mode              : Lossy                                        *
* Stream size                   : 325 MiB (11%)                                *
* Title                         : AC3-5.1-VO                                   *
* Language                      : English                                      *
* Default                       : No                                           *
* Forced                        : No                                           *
* ================================= Audio #3 ================================= *
* ID                            : 4                                            *
* Format                        : AC-3                                         *
* Format/Info                   : Audio Coding 3                               *
* Mode extension                : CM (complete main)                           *
* Format settings, Endianness   : Big                                          *
* Codec ID                      : A_AC3                                        *
* Duration                      : 1h 41mn                                      *
* Bit rate mode                 : Constant                                     *
* Bit rate                      : 192 Kbps                                     *
* Channel(s)                    : 2 channels                                   *
* Channel positions             : Front: L R                                   *
* Sampling rate                 : 48.0 KHz                                     *
* Bit depth                     : 16 bits                                      *
* Compression mode              : Lossy                                        *
* Stream size                   : 139 MiB (5%)                                 *
* Title                         : AC3-2.0-VFF                                  *
* Language                      : French                                       *
* Default                       : No                                           *
* Forced                        : No                                           *
* ================================= Texte #1 ================================= *
* ID                            : 5                                            *
* Format                        : UTF-8                                        *
* Codec ID                      : S_TEXT/UTF8                                  *
* Codec ID/Info                 : UTF-8 Plain Text                             *
* Title                         : forced                                       *
* Language                      : French                                       *
* Default                       : Yes                                          *
* Forced                        : Yes                                          *
* ================================= Texte #2 ================================= *
* ID                            : 6                                            *
* Format                        : UTF-8                                        *
* Codec ID                      : S_TEXT/UTF8                                  *
* Codec ID/Info                 : UTF-8 Plain Text                             *
* Title                         : full                                         *
* Language                      : French                                       *
* Default                       : No                                           *
* Forced                        : No                                           *
* ================================= Texte #3 ================================= *
* ID                            : 7                                            *
* Format                        : UTF-8                                        *
* Codec ID                      : S_TEXT/UTF8                                  *
* Codec ID/Info                 : UTF-8 Plain Text                             *
* Title                         : full                                         *
* Language                      : English                                      *
* Default                       : No                                           *
* Forced                        : No                                           *
* ================================= Texte #4 ================================= *
* ID                            : 8                                            *
* Format                        : UTF-8                                        *
* Codec ID                      : S_TEXT/UTF8                                  *
* Codec ID/Info                 : UTF-8 Plain Text                             *
* Title                         : SDH                                          *
* Language                      : English                                      *
* Default                       : No                                           *
* Forced                        : No                                           *
* ================================= Menu #1 ================================== *
* 00:00:00.000                  : en:Morning In Monroeville                    *
* 00:04:15.547                  : en:Black Friday                              *
* 00:07:39.918                  : en:Granny Panties                            *
* 00:11:35.987                  : en:What Happened To The Water?               *
* 00:13:04.617                  : en:Monroeville High's Class Of 1998 10-Year  *
* 00:16:09.635                  : en:Bobby Long And Brandon St. Randy          *
* 00:25:58.015                  : en:"We Can Make A Porno!"                    *
* 00:30:06.013                  : en:The Proposal                              *
* 00:33:07.986                  : en:Securing The Producer                     *
* 00:35:49.189                  : en:Finding The Cast                          *
* 00:40:20.501                  : en:Pre-Production Meeting                    *
* 00:43:55.341                  : en:Star Whores                               *
* 00:47:56.332                  : en:Going Down                                *
* 00:52:48.957                  : en:Swallow My Cockuccino                     *
* 00:58:01.561                  : en:The Morning After                         *
* 01:02:39.047                  : en:Zack And Miri Make A Porno                *
* 01:09:13.566                  : en:Wrap Party                                *
* 01:12:39.063                  : en:The Test                                  *
* 01:15:39.577                  : en:Front Street                              *
* 01:21:14.578                  : en:Three Months Later                        *
* 01:24:19.596                  : en:Every Movie Needs An Ending               *
* 01:28:40.857                  : en:A Happy Ending                            *
* 01:36:04.592                  : en:Zack And Miri Make Your Porno             *

================================================================================
*                           INFORMATION SUR LE POST                            *
================================================================================
* Taille des donnees sans par2..: 2.94 Go                                      *
* Nombre de rar.................: 40                                           *
* Taille des rar................: 76.54 Mo                                     *
* Par2..........................: 10%                                          *
* Nombre de bloc de recup.......: 411                                          *
* Taille d'un bloc..............: 750.00 Ko                                    *
* Nom a rechercher..............: J08O290S3AVLX2U9D7K97V23                     *
* Posteur.......................: [email protected]                            *
* Groupes.......................: a.b.french,a.b.movies.divx.french            *


pw : GACYG9M68