03/01/2021

https://www.themoviedb.org/movie/533444-waves

================================================================================
*                        Fichiers contenus dans le post                        *
================================================================================
Waves.2019.FRENCH.720p.HDLight.x264.AC3-EXTREME.mkv                     02:15:45
================================================================================
* Duree totale du post .........: 02:15:45                                     *
* Taille totale du post ........: 1.79 Go                                      *
================================================================================

================================================================================
*             Waves.2019.FRENCH.720p.HDLight.x264.AC3-EXTREME.mkv              *
================================================================================
* Format                        : Matroska                                     *
* Format version                : Version 4 / Version 2                        *
* File size                     : 1.79 GiB                                     *
* Duration                      : 2h 15mn                                      *
* Overall bit rate              : 1 886 Kbps                                   *
* Encoded date                  : UTC 2020-06-10 05:50:43                      *
* Writing application           : mkvmerge v47.0.0 ('Black Flag') 64-bit       *
* Writing library               : libebml v1.3.10 + libmatroska v1.5.2         *
* DURATION                      : 02:15:45.938000000                           *
* NUMBER_OF_FRAMES              : 195307                                       *
* NUMBER_OF_BYTES               : 1527579953                                   *
* _STATISTICS_WRITING_APP       : mkvmerge v47.0.0 ('Black Flag') 64-bit       *
* _STATISTICS_WRITING_DATE_UTC  : 2020-06-10 05:50:43                          *
* _STATISTICS_TAGS              : BPS DURATION NUMBER_OF_FRAMES NUMBER_OF_BYTE *
* ================================== Video =================================== *
* ID                            : 4                                            *
* Format                        : AVC                                          *
* Format/Info                   : Advanced Video Codec                         *
* Format profile                : [email protected]                                    *
* Format settings, CABAC        : Yes                                          *
* Format settings, ReFrames     : 4 frames                                     *
* Codec ID                      : V_MPEG4/ISO/AVC                              *
* Duration                      : 2h 15mn                                      *
* Bit rate                      : 1 500 Kbps                                   *
* Width                         : 1 280 pixels                                 *
* Height                        : 694 pixels                                   *
* Display aspect ratio          : 1.85:1                                       *
* Frame rate                    : 23.976 fps                                   *
* Color space                   : YUV                                          *
* Chroma subsampling            : 4:2:0                                        *
* Bit depth                     : 8 bits                                       *
* Scan type                     : Progressive                                  *
* Bits/(Pixel*Frame)            : 0.070                                        *
* Stream size                   : 1.39 GiB (78%)                               *
* Writing library               : x264 core 152 r2851M ba24899                 *
* Default                       : Yes                                          *
* Forced                        : No                                           *
* ================================= Audio #1 ================================= *
* ID                            : 1                                            *
* Format                        : AC-3                                         *
* Format/Info                   : Audio Coding 3                               *
* Mode extension                : CM (complete main)                           *
* Format settings, Endianness   : Big                                          *
* Codec ID                      : A_AC3                                        *
* Duration                      : 2h 15mn                                      *
* Bit rate mode                 : Constant                                     *
* Bit rate                      : 384 Kbps                                     *
* Channel(s)                    : 6 channels                                   *
* Channel positions             : Front: L C R, Side: L R, LFE                 *
* Sampling rate                 : 48.0 KHz                                     *
* Bit depth                     : 16 bits                                      *
* Compression mode              : Lossy                                        *
* Delay relative to video       : 12ms                                         *
* Stream size                   : 373 MiB (20%)                                *
* Language                      : French                                       *
* Default                       : Yes                                          *
* Forced                        : No                                           *
* ================================= Texte #1 ================================= *
* ID                            : 2                                            *
* Format                        : UTF-8                                        *
* Codec ID                      : S_TEXT/UTF8                                  *
* Codec ID/Info                 : UTF-8 Plain Text                             *
* Title                         : Forced                                       *
* Language                      : French                                       *
* Default                       : Yes                                          *
* Forced                        : No                                           *
* ================================= Texte #2 ================================= *
* ID                            : 3                                            *
* Format                        : UTF-8                                        *
* Codec ID                      : S_TEXT/UTF8                                  *
* Codec ID/Info                 : UTF-8 Plain Text                             *
* Title                         : French                                       *
* Language                      : French                                       *
* Default                       : No                                           *
* Forced                        : No                                           *
* ================================= Menu #1 ================================== *
* 00:00:00.000                  : :Chapter 01                                  *
* 00:07:21.816                  : :Chapter 02                                  *
* 00:16:07.049                  : :Chapter 03                                  *
* 00:26:52.694                  : :Chapter 04                                  *
* 00:34:39.369                  : :Chapter 05                                  *
* 00:40:58.206                  : :Chapter 06                                  *
* 00:50:10.007                  : :Chapter 07                                  *
* 00:55:36.291                  : :Chapter 08                                  *
* 01:04:22.609                  : :Chapter 09                                  *
* 01:12:01.317                  : :Chapter 10                                  *
* 01:18:40.883                  : :Chapter 11                                  *
* 01:26:01.865                  : :Chapter 12                                  *
* 01:37:00.398                  : :Chapter 13                                  *
* 01:43:37.044                  : :Chapter 14                                  *
* 01:57:05.435                  : :Chapter 15                                  *
* 02:07:17.380                  : :Chapter 16                                  *

================================================================================
*                           INFORMATION SUR LE POST                            *
================================================================================
* Taille des donnees sans par2..: 1.79 Go                                      *
* Nombre de rar.................: 32                                           *
* Taille des rar................: 57.50 Mo                                     *
* Par2..........................: 8%                                           *
* Nombre de bloc de recup.......: 201                                          *
* Taille d'un bloc..............: 750.00 Ko                                    *
* Nom a rechercher..............: NZ638RI0U9D5014W689V                         *
* Posteur.......................: [email protected]                            *
* Groupes.......................: a.b.french,a.b.movies.divx.french            *


pw : MX2I6704