26/01/2021

https://www.allocine.fr/film/fichefilm_gen_cfilm=233308.html

================================================================================
* https://www.allocine.fr/film/fichefilm_gen_cfilm=233308.html                 *
*                                                                              *
* Titre          : Christmas in Conway                                         *
* Année de prod. : 2013                                                        *
* Avec           : Andy Garcia, Mandy Moore, Cheri Oteri                       *
*                                                                              *
* Descriptif     :                                                             *

================================================================================
*                        Fichiers contenus dans le post                        *
================================================================================
Un dernier tour de manège (2013) - french,720p.mp4                      01:32:39
================================================================================
* Duree totale du post .........: 01:32:39                                     *
* Taille totale du post ........: 1.56 Go                                      *
================================================================================

================================================================================
*              Un dernier tour de manège (2013) - french,720p.mp4              *
================================================================================
* Format                        : MPEG-4                                       *
* Format profile                : Base Media                                   *
* Codec ID                      : isom                                         *
* File size                     : 1.56 GiB                                     *
* Duration                      : 1h 32mn                                      *
* Overall bit rate              : 2 407 Kbps                                   *
* Writing application           : Lavf55.12.100                                *
* ================================== Video =================================== *
* ID                            : 2                                            *
* Format                        : AVC                                          *
* Format/Info                   : Advanced Video Codec                         *
* Format profile                : [email protected]                                    *
* Format settings, CABAC        : Yes                                          *
* Format settings, ReFrames     : 2 frames                                     *
* Format settings, GOP          : M=3, N=30                                    *
* Codec ID                      : avc1                                         *
* Codec ID/Info                 : Advanced Video Coding                        *
* Duration                      : 1h 32mn                                      *
* Bit rate                      : 2 269 Kbps                                   *
* Width                         : 1 280 pixels                                 *
* Height                        : 720 pixels                                   *
* Display aspect ratio          : 16:9                                         *
* Frame rate mode               : Constant                                     *
* Frame rate                    : 29.970 fps                                   *
* Color space                   : YUV                                          *
* Chroma subsampling            : 4:2:0                                        *
* Bit depth                     : 8 bits                                       *
* Scan type                     : Progressive                                  *
* Bits/(Pixel*Frame)            : 0.082                                        *
* Stream size                   : 1.47 GiB (94%)                               *
* ================================= Audio #1 ================================= *
* ID                            : 1                                            *
* Format                        : AAC                                          *
* Format/Info                   : Advanced Audio Codec                         *
* Format profile                : LC                                           *
* Codec ID                      : 40                                           *
* Duration                      : 1h 32mn                                      *
* Bit rate mode                 : Constant                                     *
* Bit rate                      : 129 Kbps                                     *
* Channel(s)                    : 2 channels                                   *
* Channel positions             : Front: L R                                   *
* Sampling rate                 : 48.0 KHz                                     *
* Compression mode              : Lossy                                        *
* Stream size                   : 85.8 MiB (5%)                                *

================================================================================
*                           INFORMATION SUR LE POST                            *
================================================================================
* Taille des donnees sans par2..: 1.56 Go                                      *
* Nombre de rar.................: 28                                           *
* Taille des rar................: 57.50 Mo                                     *
* Par2..........................: 8%                                           *
* Nombre de bloc de recup.......: 349                                          *
* Taille d'un bloc..............: 375.00 Ko                                    *
* Nom a rechercher..............: M77833V1W636P7UZWD                           *
* Posteur.......................: [email protected]                            *
* Groupes.......................: a.b.french,a.b.movies.divx.french            *


pw : 1NPUWE