28/01/2021

https://www.themoviedb.org/movie/484392-6-juin-1944-la-lumi-re-de-l-aube

Info : Deuxieme partie

================================================================================
*                        Fichiers contenus dans le post                        *
================================================================================
La lumière de l'aube.1944 part.2 French 720p.mp4                           44:16
================================================================================
* Duree totale du post .........: 44:16                                        *
* Taille totale du post ........: 1.06 Go                                      *
================================================================================

================================================================================
*               La lumière de l'aube.1944 part.2 French 720p.mp4               *
================================================================================
* Format                        : MPEG-4                                       *
* Format profile                : Base Media                                   *
* Codec ID                      : isom                                         *
* File size                     : 1.06 GiB                                     *
* Duration                      : 44mn 16s                                     *
* Overall bit rate              : 3 414 Kbps                                   *
* Writing application           : Lavf55.12.100                                *
* ================================== Video =================================== *
* ID                            : 2                                            *
* Format                        : AVC                                          *
* Format/Info                   : Advanced Video Codec                         *
* Format profile                : [email protected]                                    *
* Format settings, CABAC        : Yes                                          *
* Format settings, ReFrames     : 2 frames                                     *
* Format settings, GOP          : M=3, N=30                                    *
* Codec ID                      : avc1                                         *
* Codec ID/Info                 : Advanced Video Coding                        *
* Duration                      : 44mn 16s                                     *
* Bit rate                      : 3 275 Kbps                                   *
* Width                         : 1 280 pixels                                 *
* Height                        : 720 pixels                                   *
* Display aspect ratio          : 16:9                                         *
* Frame rate mode               : Constant                                     *
* Frame rate                    : 29.970 fps                                   *
* Color space                   : YUV                                          *
* Chroma subsampling            : 4:2:0                                        *
* Bit depth                     : 8 bits                                       *
* Scan type                     : Progressive                                  *
* Bits/(Pixel*Frame)            : 0.119                                        *
* Stream size                   : 1.01 GiB (96%)                               *
* ================================= Audio #1 ================================= *
* ID                            : 1                                            *
* Format                        : AAC                                          *
* Format/Info                   : Advanced Audio Codec                         *
* Format profile                : LC                                           *
* Codec ID                      : 40                                           *
* Duration                      : 44mn 16s                                     *
* Bit rate mode                 : Constant                                     *
* Bit rate                      : 132 Kbps                                     *
* Channel(s)                    : 2 channels                                   *
* Channel positions             : Front: L R                                   *
* Sampling rate                 : 48.0 KHz                                     *
* Compression mode              : Lossy                                        *
* Delay relative to video       : -1s 1ms                                      *
* Stream size                   : 41.2 MiB (4%)                                *
* ================================= Texte #1 ================================= *
* ID                            : 2-CC1                                        *
* Format                        : EIA-608                                      *
* Muxing mode                   : AVC / SCTE 128 / DTVCC Transport             *
* Muxing mode, more info        : Muxed in Video #1                            *
* Duration                      : 44mn 16s                                     *
* Bit rate mode                 : Constant                                     *
* Stream size                   : 0.00 Byte (0%)                               *
* Encoded stream size           : 0.00 Byte (0%)                               *
* ================================= Texte #2 ================================= *
* ID                            : 2-1                                          *
* Format                        : EIA-708                                      *
* Muxing mode                   : AVC / SCTE 128 / DTVCC Transport             *
* Muxing mode, more info        : Muxed in Video #1                            *
* Duration                      : 44mn 16s                                     *
* Bit rate mode                 : Constant                                     *
* Stream size                   : 0.00 Byte (0%)                               *
* Encoded stream size           : 0.00 Byte (0%)                               *
* ================================= Texte #3 ================================= *
* ID                            : 2-3                                          *
* Format                        : EIA-708                                      *
* Muxing mode                   : AVC / SCTE 128 / DTVCC Transport             *
* Muxing mode, more info        : Muxed in Video #1                            *
* Duration                      : 44mn 16s                                     *
* Bit rate mode                 : Constant                                     *
* Stream size                   : 0.00 Byte (0%)                               *
* Encoded stream size           : 0.00 Byte (0%)                               *
* ================================= Texte #4 ================================= *
* ID                            : 2-5                                          *
* Format                        : EIA-708                                      *
* Muxing mode                   : AVC / SCTE 128 / DTVCC Transport             *
* Muxing mode, more info        : Muxed in Video #1                            *
* Duration                      : 44mn 16s                                     *
* Bit rate mode                 : Constant                                     *
* Stream size                   : 0.00 Byte (0%)                               *
* Encoded stream size           : 0.00 Byte (0%)                               *
* ================================= Texte #5 ================================= *
* ID                            : 2-6                                          *
* Format                        : EIA-708                                      *
* Muxing mode                   : AVC / SCTE 128 / DTVCC Transport             *
* Muxing mode, more info        : Muxed in Video #1                            *
* Duration                      : 44mn 16s                                     *
* Bit rate mode                 : Constant                                     *
* Stream size                   : 0.00 Byte (0%)                               *
* Encoded stream size           : 0.00 Byte (0%)                               *

================================================================================
*                           INFORMATION SUR LE POST                            *
================================================================================
* Taille des donnees sans par2..: 1.06 Go                                      *
* Nombre de rar.................: 29                                           *
* Taille des rar................: 38.45 Mo                                     *
* Par2..........................: 10%                                          *
* Nombre de bloc de recup.......: 296                                          *
* Taille d'un bloc..............: 375.00 Ko                                    *
* Nom a rechercher..............: 4L5G2F3X9F59122J728                          *
* Posteur.......................: [email protected]                               *
* Groupes.......................: a.b.french,a.b.movies.divx.french            *


pw : GXWH6WAQ