06/04/2021

================================================================================
*                        Fichiers contenus dans le post                        *
================================================================================

--------------------------------------------------------------------------------
Ben Dover - Jessica \
--------------------------------------------------------------------------------
Jessica.avi                                                                27:41
Jessica.avi.jpg

Duree................: 27:41
Taille des fichiers..: 375.88 Mo

================================================================================
*Duree totale du post .........: 27:41                                         *
*Taille totale du post ........: 375.88 Mo                                     *
================================================================================

================================================================================
*                                 Jessica.avi                                  *
================================================================================
*Format                        : AVI                                           *
*Format/Info                   : Audio Video Interleave                        *
*File size                     : 376 MiB                                       *
*Duration                      : 27mn 41s                                      *
*Overall bit rate              : 1 897 Kbps                                    *
*Writing library               : Boilsoft AVI tool build 30012/release         *
*=================================== Video ====================================*
*ID                            : 0                                             *
*Format                        : MPEG-4 Visual                                 *
*Format profile                : [email protected]                                     *
*Format settings, BVOP         : No                                            *
*Format settings, QPel         : No                                            *
*Format settings, GMC          : No warppoints                                 *
*Format settings, Matrix       : Default (H.263)                               *
*Codec ID                      : DX50                                          *
*Codec ID/Hint                 : DivX 5                                        *
*Duration                      : 27mn 41s                                      *
*Bit rate                      : 1 725 Kbps                                    *
*Width                         : 768 pixels                                    *
*Height                        : 576 pixels                                    *
*Display aspect ratio          : 4:3                                           *
*Frame rate                    : 29.970 fps                                    *
*Color space                   : YUV                                           *
*Chroma subsampling            : 4:2:0                                         *
*Bit depth                     : 8 bits                                        *
*Scan type                     : Interlaced                                    *
*Scan order                    : Top Field First                               *
*Compression mode              : Lossy                                         *
*Bits/(Pixel*Frame)            : 0.130                                         *
*Stream size                   : 342 MiB (91%)                                 *
*Writing library               : Lavc52.3.0                                    *
*================================== Audio #1 ==================================*
*ID                            : 1                                             *
*Format                        : MPEG Audio                                    *
*Format version                : Version 1                                     *
*Format profile                : Layer 3                                       *
*Mode                          : Joint stereo                                  *
*Mode extension                : MS Stereo                                     *
*Codec ID                      : 55                                            *
*Codec ID/Hint                 : MP3                                           *
*Duration                      : 27mn 41s                                      *
*Bit rate mode                 : Constant                                      *
*Bit rate                      : 160 Kbps                                      *
*Channel(s)                    : 2 channels                                    *
*Sampling rate                 : 44.1 KHz                                      *
*Compression mode              : Lossy                                         *
*Delay relative to video       : 4ms                                           *
*Stream size                   : 31.7 MiB (8%)                                 *
*Alignment                     : Split accross interleaves                     *
*Interleave, duration          : 33 ms (1.00 video frame)                      *
*Interleave, preload duration  : 500 ms                                        *

================================================================================
*                           INFORMATION SUR LE POST                            *
================================================================================
*Taille des donnees sans par2..: 375.88 Mo                                     *
*Nombre de rar.................: 14                                            *
*Taille des rar................: 28.69 Mo                                      *
*Par2..........................: 12%                                           *
*Nombre de bloc de recup.......: 74                                            *
*Taille d'un bloc..............: 625.00 Ko                                     *
*Nom a rechercher..............: 3W93JOZ21CN6C050JPPR3L068                     *
*Posteur.......................: [email protected]                                  *
*Groupes.......................: a.b.erotica                                   *


pw : M6O43T878LB76N1Y3KE2