06/04/2021

https://pornzog.com/video/13588330/atkhairy-sailor-luna-toys/

================================================================================
*                        Fichiers contenus dans le post                        *
================================================================================

--------------------------------------------------------------------------------
ATKHairy - Sailor Luna Toys \
--------------------------------------------------------------------------------
ATKHairy - Sailor Luna Toys.mp4                                            12:31
ATKHairy - Sailor Luna Toys.mp4.jpg

Duree................: 12:31
Taille des fichiers..: 661.36 Mo

================================================================================
*Duree totale du post .........: 12:31                                         *
*Taille totale du post ........: 661.36 Mo                                     *
================================================================================

================================================================================
*                       ATKHairy - Sailor Luna Toys.mp4                        *
================================================================================
*Format                        : MPEG-4                                        *
*Format profile                : Base Media / Version 2                        *
*Codec ID                      : mp42                                          *
*File size                     : 661 MiB                                       *
*Duration                      : 12mn 31s                                      *
*Overall bit rate mode         : Variable                                      *
*Overall bit rate              : 7 383 Kbps                                    *
*Encoded date                  : UTC 2020-01-09 19:31:27                       *
*Tagged date                   : UTC 2020-01-09 19:31:35                       *
*©TIM                          : 00;05;40;14                                   *
*©TSC                          : 30000                                         *
*©TSZ                          : 1001                                          *
*=================================== Video ====================================*
*ID                            : 1                                             *
*Format                        : AVC                                           *
*Format/Info                   : Advanced Video Codec                          *
*Format profile                : [email protected]                                     *
*Format settings, CABAC        : Yes                                           *
*Format settings, ReFrames     : 2 frames                                      *
*Codec ID                      : avc1                                          *
*Codec ID/Info                 : Advanced Video Coding                         *
*Duration                      : 12mn 31s                                      *
*Bit rate mode                 : Variable                                      *
*Bit rate                      : 7 061 Kbps                                    *
*Maximum bit rate              : 12.0 Mbps                                     *
*Width                         : 1 920 pixels                                  *
*Height                        : 1 080 pixels                                  *
*Display aspect ratio          : 16:9                                          *
*Frame rate mode               : Constant                                      *
*Frame rate                    : 29.970 fps                                    *
*Color space                   : YUV                                           *
*Chroma subsampling            : 4:2:0                                         *
*Bit depth                     : 8 bits                                        *
*Scan type                     : Progressive                                   *
*Bits/(Pixel*Frame)            : 0.114                                         *
*Stream size                   : 632 MiB (96%)                                 *
*Encoded date                  : UTC 2020-01-09 19:31:27                       *
*Tagged date                   : UTC 2020-01-09 19:31:27                       *
*================================== Audio #1 ==================================*
*ID                            : 2                                             *
*Format                        : AAC                                           *
*Format/Info                   : Advanced Audio Codec                          *
*Format profile                : LC                                            *
*Codec ID                      : 40                                            *
*Duration                      : 12mn 31s                                      *
*Source duration               : 12mn 31s                                      *
*Bit rate mode                 : Variable                                      *
*Bit rate                      : 317 Kbps                                      *
*Maximum bit rate              : 386 Kbps                                      *
*Channel(s)                    : 2 channels                                    *
*Channel positions             : Front: L R                                    *
*Sampling rate                 : 48.0 KHz                                      *
*Compression mode              : Lossy                                         *
*Delay relative to video       : -11ms                                         *
*Stream size                   : 28.4 MiB (4%)                                 *
*Source stream size            : 28.4 MiB (4%)                                 *
*Language                      : English                                       *
*Encoded date                  : UTC 2020-01-09 19:31:27                       *
*Tagged date                   : UTC 2020-01-09 19:31:27                       *

================================================================================
*                           INFORMATION SUR LE POST                            *
================================================================================
*Taille des donnees sans par2..: 661.36 Mo                                     *
*Nombre de rar.................: 20                                            *
*Taille des rar................: 33.57 Mo                                      *
*Par2..........................: 10%                                           *
*Nombre de bloc de recup.......: 109                                           *
*Taille d'un bloc..............: 625.00 Ko                                     *
*Nom a rechercher..............: 73GRJW74754CLDKTOFFBZ0794                     *
*Posteur.......................: [email protected]                               *
*Groupes.......................: a.b.erotica                                   *


pw : LAR7E16XA178774N17W7