06/04/2021

================================================================================
*                        Fichiers contenus dans le post                        *
================================================================================

--------------------------------------------------------------------------------
BrownBunnies - Victoria Cakes \
--------------------------------------------------------------------------------
BrownBunnies - Victoria Cakes.mp4                                          30:33
BrownBunnies - Victoria Cakes.mp4.jpg

Duree................: 30:33
Taille des fichiers..: 2.15 Go

================================================================================
*Duree totale du post .........: 30:33                                         *
*Taille totale du post ........: 2.15 Go                                       *
================================================================================

================================================================================
*                      BrownBunnies - Victoria Cakes.mp4                       *
================================================================================
*Format                        : MPEG-4                                        *
*Format profile                : Base Media / Version 2                        *
*Codec ID                      : mp42                                          *
*File size                     : 2.15 GiB                                      *
*Duration                      : 30mn 33s                                      *
*Overall bit rate mode         : Variable                                      *
*Overall bit rate              : 10.1 Mbps                                     *
*Encoded date                  : UTC 2019-12-19 03:57:20                       *
*Tagged date                   : UTC 2019-12-19 03:57:39                       *
*©TIM                          : 00;00;00;00                                   *
*©TSC                          : 30000                                         *
*©TSZ                          : 1001                                          *
*=================================== Video ====================================*
*ID                            : 1                                             *
*Format                        : AVC                                           *
*Format/Info                   : Advanced Video Codec                          *
*Format profile                : [email protected]                                     *
*Format settings, CABAC        : Yes                                           *
*Format settings, ReFrames     : 4 frames                                      *
*Codec ID                      : avc1                                          *
*Codec ID/Info                 : Advanced Video Coding                         *
*Duration                      : 30mn 33s                                      *
*Bit rate                      : 10.0 Mbps                                     *
*Width                         : 1 920 pixels                                  *
*Height                        : 1 080 pixels                                  *
*Display aspect ratio          : 16:9                                          *
*Frame rate mode               : Constant                                      *
*Frame rate                    : 29.970 fps                                    *
*Color space                   : YUV                                           *
*Chroma subsampling            : 4:2:0                                         *
*Bit depth                     : 8 bits                                        *
*Scan type                     : Progressive                                   *
*Bits/(Pixel*Frame)            : 0.162                                         *
*Stream size                   : 2.14 GiB (99%)                                *
*Encoded date                  : UTC 2019-12-19 03:57:20                       *
*Tagged date                   : UTC 2019-12-19 03:57:20                       *
*Color primaries               : BT.709-5, BT.1361, IEC 61966-2-4, SMPTE RP177 *
*Transfer characteristics      : BT.709-5, BT.1361                             *
*Matrix coefficients           : BT.709-5, BT.1361, IEC 61966-2-4 709, SMPTE RP*
*================================== Audio #1 ==================================*
*ID                            : 2                                             *
*Format                        : AAC                                           *
*Format/Info                   : Advanced Audio Codec                          *
*Format profile                : LC                                            *
*Codec ID                      : 40                                            *
*Duration                      : 30mn 33s                                      *
*Source duration               : 30mn 33s                                      *
*Bit rate mode                 : Variable                                      *
*Bit rate                      : 48.0 Kbps                                     *
*Maximum bit rate              : 69.8 Kbps                                     *
*Channel(s)                    : 2 channels                                    *
*Channel positions             : Front: L R                                    *
*Sampling rate                 : 32.0 KHz                                      *
*Compression mode              : Lossy                                         *
*Delay relative to video       : -11ms                                         *
*Stream size                   : 10.1 MiB (0%)                                 *
*Source stream size            : 10.1 MiB (0%)                                 *
*Language                      : English                                       *
*Encoded date                  : UTC 2019-12-19 03:57:20                       *
*Tagged date                   : UTC 2019-12-19 03:57:20                       *

================================================================================
*                           INFORMATION SUR LE POST                            *
================================================================================
*Taille des donnees sans par2..: 2.15 Go                                       *
*Nombre de rar.................: 29                                            *
*Taille des rar................: 76.29 Mo                                      *
*Par2..........................: 8%                                            *
*Nombre de bloc de recup.......: 145                                           *
*Taille d'un bloc..............: 1.22 Mo                                       *
*Nom a rechercher..............: 91G10VA32R2956110WT6U1794                     *
*Posteur.......................: [email protected]                                  *
*Groupes.......................: a.b.erotica                                   *


pw : 1IO1BWJZX1046WVCELZ5