06/04/2021

================================================================================
*                        Fichiers contenus dans le post                        *
================================================================================

--------------------------------------------------------------------------------
ClubSeventeen - Angel Wicky And Missy Luv Threesom \
--------------------------------------------------------------------------------
ClubSeventeen - Angel Wicky And Missy Luv Threesome.mp4                    55:58
ClubSeventeen - Angel Wicky And Missy Luv Threesome.mp4.jpg

Duree................: 55:58
Taille des fichiers..: 5.93 Go

================================================================================
*Duree totale du post .........: 55:58                                         *
*Taille totale du post ........: 5.93 Go                                       *
================================================================================

================================================================================
*           ClubSeventeen - Angel Wicky And Missy Luv Threesome.mp4            *
================================================================================
*Format                        : MPEG-4                                        *
*Format profile                : Base Media / Version 2                        *
*Codec ID                      : mp42                                          *
*File size                     : 5.92 GiB                                      *
*Duration                      : 55mn 58s                                      *
*Overall bit rate mode         : Variable                                      *
*Overall bit rate              : 15.2 Mbps                                     *
*Encoded date                  : UTC 2019-12-03 17:04:13                       *
*Tagged date                   : UTC 2019-12-03 17:19:43                       *
*©TIM                          : 00:00:00:00                                   *
*©TSC                          : 25                                            *
*©TSZ                          : 1                                             *
*=================================== Video ====================================*
*ID                            : 1                                             *
*Format                        : AVC                                           *
*Format/Info                   : Advanced Video Codec                          *
*Format profile                : [email protected]                                     *
*Format settings, CABAC        : Yes                                           *
*Format settings, ReFrames     : 2 frames                                      *
*Format settings, GOP          : M=1, N=50                                     *
*Codec ID                      : avc1                                          *
*Codec ID/Info                 : Advanced Video Coding                         *
*Duration                      : 55mn 58s                                      *
*Bit rate mode                 : Variable                                      *
*Bit rate                      : 15.0 Mbps                                     *
*Maximum bit rate              : 768 Kbps                                      *
*Width                         : 1 920 pixels                                  *
*Height                        : 1 080 pixels                                  *
*Display aspect ratio          : 16:9                                          *
*Frame rate mode               : Constant                                      *
*Frame rate                    : 25.000 fps                                    *
*Color space                   : YUV                                           *
*Chroma subsampling            : 4:2:0                                         *
*Bit depth                     : 8 bits                                        *
*Scan type                     : Progressive                                   *
*Bits/(Pixel*Frame)            : 0.289                                         *
*Stream size                   : 5.85 GiB (99%)                                *
*Encoded date                  : UTC 2019-12-03 17:04:13                       *
*Tagged date                   : UTC 2019-12-03 17:04:13                       *
*Color primaries               : BT.709-5, BT.1361, IEC 61966-2-4, SMPTE RP177 *
*Transfer characteristics      : BT.709-5, BT.1361                             *
*Matrix coefficients           : BT.709-5, BT.1361, IEC 61966-2-4 709, SMPTE RP*
*================================== Audio #1 ==================================*
*ID                            : 2                                             *
*Format                        : AAC                                           *
*Format/Info                   : Advanced Audio Codec                          *
*Format profile                : LC                                            *
*Codec ID                      : 40                                            *
*Duration                      : 55mn 58s                                      *
*Source duration               : 55mn 58s                                      *
*Bit rate mode                 : Variable                                      *
*Bit rate                      : 192 Kbps                                      *
*Maximum bit rate              : 291 Kbps                                      *
*Channel(s)                    : 2 channels                                    *
*Channel positions             : Front: L R                                    *
*Sampling rate                 : 48.0 KHz                                      *
*Compression mode              : Lossy                                         *
*Stream size                   : 75.8 MiB (1%)                                 *
*Source stream size            : 75.8 MiB (1%)                                 *
*Language                      : English                                       *
*Encoded date                  : UTC 2019-12-03 17:04:13                       *
*Tagged date                   : UTC 2019-12-03 17:04:13                       *

================================================================================
*                           INFORMATION SUR LE POST                            *
================================================================================
*Taille des donnees sans par2..: 5.93 Go                                       *
*Nombre de rar.................: 64                                            *
*Taille des rar................: 95.83 Mo                                      *
*Par2..........................: 7%                                            *
*Nombre de bloc de recup.......: 232                                           *
*Taille d'un bloc..............: 1.83 Mo                                       *
*Nom a rechercher..............: 27715WOV8E2B0UQ7JG460589S                     *
*Posteur.......................: [email protected]                             *
*Groupes.......................: a.b.erotica                                   *


pw : 85Y3MH9P11TS5IDRX8MJ