06/04/2021

================================================================================
*                        Fichiers contenus dans le post                        *
================================================================================

--------------------------------------------------------------------------------
MomsTeachSex - Elle Mcrae And Laney Grey Moms Toug \
--------------------------------------------------------------------------------
MomsTeachSex - Elle Mcrae And Laney Grey Moms Tough Love.mp4               35:32
MomsTeachSex - Elle Mcrae And Laney Grey Moms Tough Love.mp4.jpg

Duree................: 35:32
Taille des fichiers..: 2.84 Go

================================================================================
*Duree totale du post .........: 35:32                                         *
*Taille totale du post ........: 2.84 Go                                       *
================================================================================

================================================================================
*         MomsTeachSex - Elle Mcrae And Laney Grey Moms Tough Love.mp4         *
================================================================================
*Format                        : MPEG-4                                        *
*Format profile                : Base Media                                    *
*Codec ID                      : isom                                          *
*File size                     : 2.84 GiB                                      *
*Duration                      : 35mn 32s                                      *
*Overall bit rate              : 11.4 Mbps                                     *
*Writing application           : Lavf57.72.101                                 *
*=================================== Video ====================================*
*ID                            : 1                                             *
*Format                        : AVC                                           *
*Format/Info                   : Advanced Video Codec                          *
*Format profile                : [email protected]                                     *
*Format settings, CABAC        : Yes                                           *
*Format settings, ReFrames     : 4 frames                                      *
*Codec ID                      : avc1                                          *
*Codec ID/Info                 : Advanced Video Coding                         *
*Duration                      : 35mn 32s                                      *
*Bit rate                      : 11.2 Mbps                                     *
*Width                         : 1 920 pixels                                  *
*Height                        : 1 080 pixels                                  *
*Display aspect ratio          : 16:9                                          *
*Frame rate mode               : Constant                                      *
*Frame rate                    : 23.976 fps                                    *
*Color space                   : YUV                                           *
*Chroma subsampling            : 4:2:0                                         *
*Bit depth                     : 8 bits                                        *
*Scan type                     : Progressive                                   *
*Bits/(Pixel*Frame)            : 0.226                                         *
*Stream size                   : 2.79 GiB (98%)                                *
*Writing library               : x264 core 150                                 *
*================================== Audio #1 ==================================*
*ID                            : 2                                             *
*Format                        : AAC                                           *
*Format/Info                   : Advanced Audio Codec                          *
*Format profile                : LC                                            *
*Codec ID                      : 40                                            *
*Duration                      : 35mn 32s                                      *
*Duration_LastFrame            : -17ms                                         *
*Bit rate mode                 : Constant                                      *
*Bit rate                      : 196 Kbps                                      *
*Channel(s)                    : 2 channels                                    *
*Channel positions             : Front: L R                                    *
*Sampling rate                 : 44.1 KHz                                      *
*Compression mode              : Lossy                                         *
*Delay relative to video       : -2s 2ms                                       *
*Stream size                   : 49.8 MiB (2%)                                 *
*Language                      : English                                       *

================================================================================
*                           INFORMATION SUR LE POST                            *
================================================================================
*Taille des donnees sans par2..: 2.84 Go                                       *
*Nombre de rar.................: 39                                            *
*Taille des rar................: 76.29 Mo                                      *
*Par2..........................: 8%                                            *
*Nombre de bloc de recup.......: 191                                           *
*Taille d'un bloc..............: 1.22 Mo                                       *
*Nom a rechercher..............: 42RT8TFHZH9S3W77SAET9414M                     *
*Posteur.......................: [email protected]                              *
*Groupes.......................: a.b.erotica                                   *


pw : 2CIJ6FNF1OZYVD4RH082