06/04/2021

================================================================================
*                        Fichiers contenus dans le post                        *
================================================================================

--------------------------------------------------------------------------------
Killergram - Kiki Minaj And Jasmine Jae Hot Fuck \
--------------------------------------------------------------------------------
Killergram - Kiki Minaj And Jasmine Jae Hot Fuck.mp4                       24:44
Killergram - Kiki Minaj And Jasmine Jae Hot Fuck.mp4.jpg

Duree................: 24:44
Taille des fichiers..: 727.41 Mo

================================================================================
*Duree totale du post .........: 24:44                                         *
*Taille totale du post ........: 727.41 Mo                                     *
================================================================================

================================================================================
*             Killergram - Kiki Minaj And Jasmine Jae Hot Fuck.mp4             *
================================================================================
*Format                        : MPEG-4                                        *
*Codec ID                      : M4V                                           *
*File size                     : 727 MiB                                       *
*Duration                      : 24mn 44s                                      *
*Overall bit rate mode         : Variable                                      *
*Overall bit rate              : 4 107 Kbps                                    *
*Encoded date                  : UTC 2018-11-16 14:42:47                       *
*Tagged date                   : UTC 2018-11-16 15:10:10                       *
*=================================== Video ====================================*
*ID                            : 2                                             *
*Format                        : AVC                                           *
*Format/Info                   : Advanced Video Codec                          *
*Format profile                : [email protected]                                     *
*Format settings, CABAC        : Yes                                           *
*Format settings, ReFrames     : 2 frames                                      *
*Format settings, GOP          : M=2, N=30                                     *
*Codec ID                      : avc1                                          *
*Codec ID/Info                 : Advanced Video Coding                         *
*Duration                      : 24mn 44s                                      *
*Bit rate mode                 : Variable                                      *
*Bit rate                      : 3 999 Kbps                                    *
*Maximum bit rate              : 768 Kbps                                      *
*Width                         : 1 280 pixels                                  *
*Height                        : 720 pixels                                    *
*Display aspect ratio          : 16:9                                          *
*Frame rate mode               : Constant                                      *
*Frame rate                    : 25.000 fps                                    *
*Color space                   : YUV                                           *
*Chroma subsampling            : 4:2:0                                         *
*Bit depth                     : 8 bits                                        *
*Scan type                     : Progressive                                   *
*Bits/(Pixel*Frame)            : 0.174                                         *
*Stream size                   : 708 MiB (97%)                                 *
*Title                         : Core Media Video                              *
*Encoded date                  : UTC 2018-11-16 14:42:47                       *
*Tagged date                   : UTC 2018-11-16 15:10:10                       *
*Color primaries               : BT.709-5, BT.1361, IEC 61966-2-4, SMPTE RP177 *
*Transfer characteristics      : BT.709-5, BT.1361                             *
*Matrix coefficients           : BT.709-5, BT.1361, IEC 61966-2-4 709, SMPTE RP*
*================================== Audio #1 ==================================*
*ID                            : 1                                             *
*Format                        : AAC                                           *
*Format/Info                   : Advanced Audio Codec                          *
*Format profile                : LC                                            *
*Codec ID                      : 40                                            *
*Duration                      : 24mn 44s                                      *
*Source duration               : 24mn 44s                                      *
*Bit rate mode                 : Constant                                      *
*Bit rate                      : 104 Kbps                                      *
*Nominal bit rate              : 128 Kbps                                      *
*Channel(s)                    : 2 channels                                    *
*Channel positions             : Front: L R                                    *
*Sampling rate                 : 48.0 KHz                                      *
*Compression mode              : Lossy                                         *
*Delay relative to video       : -40ms                                         *
*Stream size                   : 18.4 MiB (3%)                                 *
*Source stream size            : 18.4 MiB (3%)                                 *
*Title                         : Core Media Audio                              *
*Language                      : English                                       *
*Encoded date                  : UTC 2018-11-16 14:42:47                       *
*Tagged date                   : UTC 2018-11-16 15:10:10                       *

================================================================================
*                           INFORMATION SUR LE POST                            *
================================================================================
*Taille des donnees sans par2..: 727.41 Mo                                     *
*Nombre de rar.................: 22                                            *
*Taille des rar................: 33.57 Mo                                      *
*Par2..........................: 10%                                           *
*Nombre de bloc de recup.......: 120                                           *
*Taille d'un bloc..............: 625.00 Ko                                     *
*Nom a rechercher..............: U5RBU7QA2RZA7F5PP61A33T4S                     *
*Posteur.......................: [email protected]                               *
*Groupes.......................: a.b.erotica                                   *


pw : 5RKYOX9517X28I9PY9S9