06/04/2021

================================================================================
*                        Fichiers contenus dans le post                        *
================================================================================

--------------------------------------------------------------------------------
SexMex - Bridgette B - Sinner \
--------------------------------------------------------------------------------
SexMex - Bridgette B - Sinner.mp4                                          25:30
SexMex - Bridgette B - Sinner.mp4.jpg

Duree................: 25:30
Taille des fichiers..: 769.98 Mo

================================================================================
*Duree totale du post .........: 25:30                                         *
*Taille totale du post ........: 769.98 Mo                                     *
================================================================================

================================================================================
*                      SexMex - Bridgette B - Sinner.mp4                       *
================================================================================
*Format                        : MPEG-4                                        *
*Format profile                : Base Media                                    *
*Codec ID                      : isom                                          *
*File size                     : 770 MiB                                       *
*Duration                      : 25mn 30s                                      *
*Overall bit rate mode         : Variable                                      *
*Overall bit rate              : 4 219 Kbps                                    *
*Writing application           : Lavf57.71.100                                 *
*=================================== Video ====================================*
*ID                            : 1                                             *
*Format                        : AVC                                           *
*Format/Info                   : Advanced Video Codec                          *
*Format profile                : [email protected]                                 *
*Format settings, CABAC        : No                                            *
*Format settings, ReFrames     : 3 frames                                      *
*Codec ID                      : avc1                                          *
*Codec ID/Info                 : Advanced Video Coding                         *
*Duration                      : 25mn 30s                                      *
*Bit rate mode                 : Variable                                      *
*Bit rate                      : 4 000 Kbps                                    *
*Width                         : 1 920 pixels                                  *
*Height                        : 1 080 pixels                                  *
*Display aspect ratio          : 16:9                                          *
*Frame rate mode               : Constant                                      *
*Frame rate                    : 30.000 fps                                    *
*Color space                   : YUV                                           *
*Chroma subsampling            : 4:2:0                                         *
*Bit depth                     : 8 bits                                        *
*Scan type                     : Progressive                                   *
*Bits/(Pixel*Frame)            : 0.064                                         *
*Stream size                   : 730 MiB (95%)                                 *
*Writing library               : x264 core 148 r333 90a61ec                    *
*================================== Audio #1 ==================================*
*ID                            : 2                                             *
*Format                        : AAC                                           *
*Format/Info                   : Advanced Audio Codec                          *
*Format profile                : LC                                            *
*Codec ID                      : 40                                            *
*Duration                      : 25mn 30s                                      *
*Duration_LastFrame            : -21ms                                         *
*Bit rate mode                 : Variable                                      *
*Bit rate                      : 211 Kbps                                      *
*Maximum bit rate              : 320 Kbps                                      *
*Channel(s)                    : 2 channels                                    *
*Channel positions             : Front: L R                                    *
*Sampling rate                 : 44.1 KHz                                      *
*Compression mode              : Lossy                                         *
*Stream size                   : 38.5 MiB (5%)                                 *
*Language                      : English                                       *

================================================================================
*                           INFORMATION SUR LE POST                            *
================================================================================
*Taille des donnees sans par2..: 769.98 Mo                                     *
*Nombre de rar.................: 23                                            *
*Taille des rar................: 33.57 Mo                                      *
*Par2..........................: 10%                                           *
*Nombre de bloc de recup.......: 127                                           *
*Taille d'un bloc..............: 625.00 Ko                                     *
*Nom a rechercher..............: WQ1Z54OHJV8GA9AQ3FR7PIF14                     *
*Posteur.......................: [email protected]                            *
*Groupes.......................: a.b.erotica                                   *


pw : 4E8EG215X7286OL3FH51