11/04/2021

https://www.allocine.fr/film/fichefilm_gen_cfilm=32067.html

================================================================================
*                        Fichiers contenus dans le post                        *
================================================================================
L.Inevitable.Catastrophe.1978.MULTI.HDLight.1080p.AC3.x264-BPH-Dread-Tea02:35:07
================================================================================
*Duree totale du post .........: 02:35:07                                      *
*Taille totale du post ........: 4.86 Go                                       *
================================================================================

================================================================================
*L.Inevitable.Catastrophe.1978.MULTI.HDLight.1080p.AC3.x264-BPH-Dread-Team.mkv *
================================================================================
*Format                        : Matroska                                      *
*Format version                : Version 4 / Version 2                         *
*File size                     : 4.86 GiB                                      *
*Duration                      : 2h 35mn                                       *
*Overall bit rate              : 4 484 Kbps                                    *
*Movie name                    : L.Inevitable.Catastrophe.1978.MULTI.HDLight.10*
*Encoded date                  : UTC 2021-04-01 17:32:42                       *
*Writing application           : mkvmerge v45.0.0 ('Heaven in Pennies') 64-bit *
*Writing library               : Lavf58.29.100                                 *
*DURATION                      : 02:35:05.500000000                            *
*NUMBER_OF_FRAMES              : 1183                                          *
*NUMBER_OF_BYTES               : 70880                                         *
*_STATISTICS_WRITING_APP       : mkvmerge v45.0.0 ('Heaven in Pennies') 64-bit *
*_STATISTICS_WRITING_DATE_UTC  : 2021-04-01 17:32:42                           *
*_STATISTICS_TAGS              : BPS DURATION NUMBER_OF_FRAMES NUMBER_OF_BYTES *
*=================================== Video ====================================*
*ID                            : 1                                             *
*Format                        : AVC                                           *
*Format/Info                   : Advanced Video Codec                          *
*Format profile                : [email protected]                                     *
*Format settings, CABAC        : Yes                                           *
*Format settings, ReFrames     : 8 frames                                      *
*Codec ID                      : V_MPEG4/ISO/AVC                               *
*Duration                      : 2h 35mn                                       *
*Bit rate                      : 3 627 Kbps                                    *
*Width                         : 1 920 pixels                                  *
*Height                        : 800 pixels                                    *
*Display aspect ratio          : 2.40:1                                        *
*Frame rate                    : 23.976 fps                                    *
*Color space                   : YUV                                           *
*Chroma subsampling            : 4:2:0                                         *
*Bit depth                     : 8 bits                                        *
*Scan type                     : Progressive                                   *
*Bits/(Pixel*Frame)            : 0.098                                         *
*Stream size                   : 3.93 GiB (81%)                                *
*Writing library               : x264 core 157 r2935 545de2f                   *
*Default                       : Yes                                           *
*Forced                        : No                                            *
*DURATION                      : 02:35:07.423000000                            *
*NUMBER_OF_FRAMES              : 223155                                        *
*NUMBER_OF_BYTES               : 4321447051                                    *
*_STATISTICS_WRITING_APP       : mkvmerge v45.0.0 ('Heaven in Pennies') 64-bit *
*_STATISTICS_WRITING_DATE_UTC  : 2021-04-01 17:32:42                           *
*_STATISTICS_TAGS              : BPS DURATION NUMBER_OF_FRAMES NUMBER_OF_BYTES *
*Color primaries               : BT.709-5, BT.1361, IEC 61966-2-4, SMPTE RP177 *
*Transfer characteristics      : BT.709-5, BT.1361                             *
*Matrix coefficients           : BT.709-5, BT.1361, IEC 61966-2-4 709, SMPTE RP*
*================================== Audio #1 ==================================*
*ID                            : 2                                             *
*Format                        : AC-3                                          *
*Format/Info                   : Audio Coding 3                                *
*Mode extension                : CM (complete main)                            *
*Format settings, Endianness   : Big                                           *
*Codec ID                      : A_AC3                                         *
*Duration                      : 2h 35mn                                       *
*Bit rate mode                 : Constant                                      *
*Bit rate                      : 384 Kbps                                      *
*Channel(s)                    : 2 channels                                    *
*Channel positions             : Front: L R                                    *
*Sampling rate                 : 48.0 KHz                                      *
*Bit depth                     : 16 bits                                       *
*Compression mode              : Lossy                                         *
*Delay relative to video       : -5ms                                          *
*Stream size                   : 426 MiB (9%)                                  *
*Title                         : Français                                      *
*Language                      : French                                        *
*Default                       : Yes                                           *
*Forced                        : No                                            *
*DURATION                      : 02:35:07.584000000                            *
*NUMBER_OF_FRAMES              : 290862                                        *
*NUMBER_OF_BYTES               : 446764032                                     *
*_STATISTICS_WRITING_APP       : mkvmerge v45.0.0 ('Heaven in Pennies') 64-bit *
*_STATISTICS_WRITING_DATE_UTC  : 2021-04-01 17:32:42                           *
*_STATISTICS_TAGS              : BPS DURATION NUMBER_OF_FRAMES NUMBER_OF_BYTES *
*================================== Audio #2 ==================================*
*ID                            : 3                                             *
*Format                        : AC-3                                          *
*Format/Info                   : Audio Coding 3                                *
*Mode extension                : CM (complete main)                            *
*Format settings, Endianness   : Big                                           *
*Codec ID                      : A_AC3                                         *
*Duration                      : 2h 35mn                                       *
*Bit rate mode                 : Constant                                      *
*Bit rate                      : 384 Kbps                                      *
*Channel(s)                    : 2 channels                                    *
*Channel positions             : Front: L R                                    *
*Sampling rate                 : 48.0 KHz                                      *
*Bit depth                     : 16 bits                                       *
*Compression mode              : Lossy                                         *
*Delay relative to video       : -5ms                                          *
*Stream size                   : 426 MiB (9%)                                  *
*Title                         : English DTS                                   *
*Language                      : English                                       *
*Default                       : No                                            *
*Forced                        : No                                            *
*DURATION                      : 02:35:07.424000000                            *
*NUMBER_OF_FRAMES              : 290857                                        *
*NUMBER_OF_BYTES               : 446756352                                     *
*_STATISTICS_WRITING_APP       : mkvmerge v45.0.0 ('Heaven in Pennies') 64-bit *
*_STATISTICS_WRITING_DATE_UTC  : 2021-04-01 17:32:42                           *
*_STATISTICS_TAGS              : BPS DURATION NUMBER_OF_FRAMES NUMBER_OF_BYTES *
*================================== Texte #1 ==================================*
*ID                            : 4                                             *
*Format                        : ASS                                           *
*Codec ID                      : S_TEXT/ASS                                    *
*Codec ID/Info                 : Advanced Sub Station Alpha                    *
*Compression mode              : Lossless                                      *
*Title                         : Français Forcés                               *
*Language                      : French                                        *
*Default                       : Yes                                           *
*Forced                        : Yes                                           *
*================================== Texte #2 ==================================*
*ID                            : 5                                             *
*Format                        : ASS                                           *
*Codec ID                      : S_TEXT/ASS                                    *
*Codec ID/Info                 : Advanced Sub Station Alpha                    *
*Compression mode              : Lossless                                      *
*Title                         : Français                                      *
*Language                      : French                                        *
*Default                       : No                                            *
*Forced                        : No                                            *
*DURATION                      : 02:23:05.470000000                            *
*NUMBER_OF_FRAMES              : 320                                           *
*NUMBER_OF_BYTES               : 20891                                         *
*_STATISTICS_WRITING_APP       : mkvmerge v45.0.0 ('Heaven in Pennies') 64-bit *
*_STATISTICS_WRITING_DATE_UTC  : 2021-04-01 17:32:42                           *
*_STATISTICS_TAGS              : BPS DURATION NUMBER_OF_FRAMES NUMBER_OF_BYTES *
*================================== Menu #1 ===================================*
*00:00:00.000                  : :Chapter 1                                    *
*00:06:45.363                  : :Chapter 2                                    *
*00:09:31.613                  : :Chapter 3                                    *
*00:12:12.232                  : :Chapter 4                                    *
*00:17:09.445                  : :Chapter 5                                    *
*00:21:55.314                  : :Chapter 6                                    *
*00:24:28.133                  : :Chapter 7                                    *
*00:29:01.531                  : :Chapter 8                                    *
*00:32:33.702                  : :Chapter 9                                    *
*00:35:40.805                  : :Chapter 10                                   *
*00:40:37.810                  : :Chapter 11                                   *
*00:46:59.025                  : :Chapter 12                                   *
*00:49:54.325                  : :Chapter 13                                   *
*00:54:55.292                  : :Chapter 14                                   *
*00:58:33.260                  : :Chapter 15                                   *
*01:00:51.857                  : :Chapter 16                                   *
*01:04:24.486                  : :Chapter 17                                   *
*01:05:51.239                  : :Chapter 18                                   *
*01:07:16.908                  : :Chapter 19                                   *
*01:10:44.657                  : :Chapter 20                                   *
*01:14:04.732                  : :Chapter 21                                   *
*01:17:24.306                  : :Chapter 22                                   *
*01:21:04.693                  : :Chapter 23                                   *
*01:23:34.009                  : :Chapter 24                                   *
*01:26:57.421                  : :Chapter 25                                   *
*01:31:00.330                  : :Chapter 26                                   *
*01:33:40.907                  : :Chapter 27                                   *
*01:36:31.577                  : :Chapter 28                                   *
*01:38:00.917                  : :Chapter 29                                   *
*01:43:04.970                  : :Chapter 30                                   *
*01:44:31.974                  : :Chapter 31                                   *
*01:49:29.813                  : :Chapter 32                                   *
*01:50:46.765                  : :Chapter 33                                   *
*02:01:43.296                  : :Chapter 34                                   *
*02:04:01.017                  : :Chapter 35                                   *
*02:06:49.268                  : :Chapter 36                                   *
*02:12:54.049                  : :Chapter 37                                   *
*02:14:25.891                  : :Chapter 38                                   *
*02:17:00.170                  : :Chapter 39                                   *
*02:19:21.311                  : :Chapter 40                                   *
*02:21:12.631                  : :Chapter 41                                   *
*02:23:52.749                  : :Chapter 42                                   *
*02:27:02.981                  : :Chapter 43                                   *
*02:29:49.439                  : :Chapter 44                                   *
*02:32:17.128                  : :Chapter 45                                   *

================================================================================
*                           INFORMATION SUR LE POST                            *
================================================================================
*Taille des donnees sans par2..: 4.86 Go                                       *
*Nombre de rar.................: 52                                            *
*Taille des rar................: 95.83 Mo                                      *
*Par2..........................: 7%                                            *
*Nombre de bloc de recup.......: 191                                           *
*Taille d'un bloc..............: 1.83 Mo                                       *
*Nom a rechercher..............: EX5CK5Q5W85W67HMH77AQMM47                     *
*Posteur.......................: [email protected]                                  *
*Groupes.......................: a.b.erotica                                   *


pw : T82M52P1F87428P1UQNT