11/04/2021

https://www.allocine.fr/film/fichefilm_gen_cfilm=5368.html

================================================================================
*                        Fichiers contenus dans le post                        *
================================================================================
Sacco.Et.Vanzetti.1971.MULTI.HDLight.1080p.AC3.x264-BPH-Dread-Team.mkv  02:04:52
================================================================================
*Duree totale du post .........: 02:04:52                                      *
*Taille totale du post ........: 3.83 Go                                       *
================================================================================

================================================================================
*    Sacco.Et.Vanzetti.1971.MULTI.HDLight.1080p.AC3.x264-BPH-Dread-Team.mkv    *
================================================================================
*Format                        : Matroska                                      *
*Format version                : Version 4 / Version 2                         *
*File size                     : 3.83 GiB                                      *
*Duration                      : 2h 4mn                                        *
*Overall bit rate              : 4 389 Kbps                                    *
*Movie name                    : Sacco.Et.Vanzetti.1971.MULTI.HDLight.1080p.AC3*
*Encoded date                  : UTC 2021-04-04 15:02:36                       *
*Writing application           : mkvmerge v45.0.0 ('Heaven in Pennies') 64-bit *
*Writing library               : Lavf58.29.100                                 *
*=================================== Video ====================================*
*ID                            : 1                                             *
*Format                        : AVC                                           *
*Format/Info                   : Advanced Video Codec                          *
*Format profile                : [email protected]                                     *
*Format settings, CABAC        : Yes                                           *
*Format settings, ReFrames     : 8 frames                                      *
*Codec ID                      : V_MPEG4/ISO/AVC                               *
*Duration                      : 2h 4mn                                        *
*Bit rate                      : 3 534 Kbps                                    *
*Width                         : 1 920 pixels                                  *
*Height                        : 1 028 pixels                                  *
*Display aspect ratio          : 1.85:1                                        *
*Frame rate                    : 24.000 fps                                    *
*Color space                   : YUV                                           *
*Chroma subsampling            : 4:2:0                                         *
*Bit depth                     : 8 bits                                        *
*Scan type                     : Progressive                                   *
*Bits/(Pixel*Frame)            : 0.075                                         *
*Stream size                   : 3.08 GiB (81%)                                *
*Writing library               : x264 core 157 r2935 545de2f                   *
*Default                       : Yes                                           *
*Forced                        : No                                            *
*DURATION                      : 02:04:52.417000000                            *
*NUMBER_OF_FRAMES              : 179818                                        *
*NUMBER_OF_BYTES               : 3389621399                                    *
*_STATISTICS_WRITING_APP       : mkvmerge v45.0.0 ('Heaven in Pennies') 64-bit *
*_STATISTICS_WRITING_DATE_UTC  : 2021-04-04 15:02:36                           *
*_STATISTICS_TAGS              : BPS DURATION NUMBER_OF_FRAMES NUMBER_OF_BYTES *
*Color primaries               : BT.709-5, BT.1361, IEC 61966-2-4, SMPTE RP177 *
*Transfer characteristics      : BT.709-5, BT.1361                             *
*Matrix coefficients           : BT.709-5, BT.1361, IEC 61966-2-4 709, SMPTE RP*
*================================== Audio #1 ==================================*
*ID                            : 2                                             *
*Format                        : AC-3                                          *
*Format/Info                   : Audio Coding 3                                *
*Mode extension                : CM (complete main)                            *
*Format settings, Endianness   : Big                                           *
*Codec ID                      : A_AC3                                         *
*Duration                      : 2h 4mn                                        *
*Bit rate mode                 : Constant                                      *
*Bit rate                      : 384 Kbps                                      *
*Channel(s)                    : 1 channel                                     *
*Channel positions             : Front: C                                      *
*Sampling rate                 : 48.0 KHz                                      *
*Bit depth                     : 16 bits                                       *
*Compression mode              : Lossy                                         *
*Delay relative to video       : -5ms                                          *
*Stream size                   : 343 MiB (9%)                                  *
*Title                         : DTS HDMA 924 kb/s                             *
*Language                      : French                                        *
*Default                       : Yes                                           *
*Forced                        : No                                            *
*DURATION                      : 02:04:52.416000000                            *
*NUMBER_OF_FRAMES              : 234138                                        *
*NUMBER_OF_BYTES               : 359635968                                     *
*_STATISTICS_WRITING_APP       : mkvmerge v45.0.0 ('Heaven in Pennies') 64-bit *
*_STATISTICS_WRITING_DATE_UTC  : 2021-04-04 15:02:36                           *
*_STATISTICS_TAGS              : BPS DURATION NUMBER_OF_FRAMES NUMBER_OF_BYTES *
*================================== Audio #2 ==================================*
*ID                            : 3                                             *
*Format                        : AC-3                                          *
*Format/Info                   : Audio Coding 3                                *
*Mode extension                : CM (complete main)                            *
*Format settings, Endianness   : Big                                           *
*Codec ID                      : A_AC3                                         *
*Duration                      : 2h 4mn                                        *
*Bit rate mode                 : Constant                                      *
*Bit rate                      : 384 Kbps                                      *
*Channel(s)                    : 1 channel                                     *
*Channel positions             : Front: C                                      *
*Sampling rate                 : 48.0 KHz                                      *
*Bit depth                     : 16 bits                                       *
*Compression mode              : Lossy                                         *
*Delay relative to video       : -5ms                                          *
*Stream size                   : 343 MiB (9%)                                  *
*Title                         : DTS HDMA 932 kb/s                             *
*Language                      : Italian                                       *
*Default                       : No                                            *
*Forced                        : No                                            *
*DURATION                      : 02:04:52.416000000                            *
*NUMBER_OF_FRAMES              : 234138                                        *
*NUMBER_OF_BYTES               : 359635968                                     *
*_STATISTICS_WRITING_APP       : mkvmerge v45.0.0 ('Heaven in Pennies') 64-bit *
*_STATISTICS_WRITING_DATE_UTC  : 2021-04-04 15:02:36                           *
*_STATISTICS_TAGS              : BPS DURATION NUMBER_OF_FRAMES NUMBER_OF_BYTES *
*================================== Texte #1 ==================================*
*ID                            : 4                                             *
*Format                        : ASS                                           *
*Codec ID                      : S_TEXT/ASS                                    *
*Codec ID/Info                 : Advanced Sub Station Alpha                    *
*Compression mode              : Lossless                                      *
*Title                         : French Forced                                 *
*Language                      : French                                        *
*Default                       : Yes                                           *
*Forced                        : Yes                                           *
*DURATION                      : 01:53:47.834000000                            *
*NUMBER_OF_FRAMES              : 105                                           *
*NUMBER_OF_BYTES               : 5842                                          *
*_STATISTICS_WRITING_APP       : mkvmerge v45.0.0 ('Heaven in Pennies') 64-bit *
*_STATISTICS_WRITING_DATE_UTC  : 2021-04-04 15:02:36                           *
*_STATISTICS_TAGS              : BPS DURATION NUMBER_OF_FRAMES NUMBER_OF_BYTES *
*================================== Texte #2 ==================================*
*ID                            : 5                                             *
*Format                        : ASS                                           *
*Codec ID                      : S_TEXT/ASS                                    *
*Codec ID/Info                 : Advanced Sub Station Alpha                    *
*Compression mode              : Lossless                                      *
*Title                         : Full FR                                       *
*Language                      : French                                        *
*Default                       : No                                            *
*Forced                        : No                                            *
*DURATION                      : 02:02:26.292000000                            *
*NUMBER_OF_FRAMES              : 1529                                          *
*NUMBER_OF_BYTES               : 85302                                         *
*_STATISTICS_WRITING_APP       : mkvmerge v45.0.0 ('Heaven in Pennies') 64-bit *
*_STATISTICS_WRITING_DATE_UTC  : 2021-04-04 15:02:36                           *
*_STATISTICS_TAGS              : BPS DURATION NUMBER_OF_FRAMES NUMBER_OF_BYTES *
*================================== Menu #1 ===================================*
*00:00:00.000                  : :Chapter 1                                    *
*00:06:20.167                  : :Chapter 2                                    *
*00:08:19.833                  : :Chapter 3                                    *
*00:15:23.083                  : :Chapter 4                                    *
*00:18:13.125                  : :Chapter 5                                    *
*00:22:00.542                  : :Chapter 6                                    *
*00:32:01.292                  : :Chapter 7                                    *
*00:34:42.500                  : :Chapter 8                                    *
*00:40:52.458                  : :Chapter 9                                    *
*00:47:50.167                  : :Chapter 10                                   *
*00:58:55.417                  : :Chapter 11                                   *
*01:09:47.875                  : :Chapter 12                                   *
*01:13:45.083                  : :Chapter 13                                   *
*01:23:35.458                  : :Chapter 14                                   *
*01:31:37.833                  : :Chapter 15                                   *
*01:40:43.583                  : :Chapter 16                                   *
*01:50:47.833                  : :Chapter 17                                   *
*01:57:00.667                  : :Chapter 18                                   *

================================================================================
*                           INFORMATION SUR LE POST                            *
================================================================================
*Taille des donnees sans par2..: 3.83 Go                                       *
*Nombre de rar.................: 52                                            *
*Taille des rar................: 76.29 Mo                                      *
*Par2..........................: 7%                                            *
*Nombre de bloc de recup.......: 150                                           *
*Taille d'un bloc..............: 1.83 Mo                                       *
*Nom a rechercher..............: 583RF87UQRCD6K89SR892T7RL                     *
*Posteur.......................: [email protected]                                 *
*Groupes.......................: a.b.erotica                                   *


pw : 821WK5B39A71Y4827679