11/04/2021

https://www.allocine.fr/film/fichefilm_gen_cfilm=597.html

================================================================================
*                        Fichiers contenus dans le post                        *
================================================================================
La.Veuve.Noir.1987.MULTi.1080p.HDLight.AC3.x264-Dread-Team.mkv          01:41:52
================================================================================
*Duree totale du post .........: 01:41:52                                      *
*Taille totale du post ........: 2.84 Go                                       *
================================================================================

================================================================================
*        La.Veuve.Noir.1987.MULTi.1080p.HDLight.AC3.x264-Dread-Team.mkv        *
================================================================================
*Format                        : Matroska                                      *
*Format version                : Version 4 / Version 2                         *
*File size                     : 2.84 GiB                                      *
*Duration                      : 1h 41mn                                       *
*Overall bit rate              : 3 995 Kbps                                    *
*Movie name                    : La.Veuve.Noir.1987.MULTi..HDLight.AC3.x264-Dre*
*Encoded by                    : Dread-Team                                    *
*Writing application           : HandBrake 1.3.3 2020082500                    *
*Writing library               : Lavf58.29.100                                 *
*TITLE                         : La.Veuve.Noir.1987.MULTi..HDLight.AC3.x264-Dre*
*Attachment                    : Yes / Yes                                     *
*=================================== Video ====================================*
*ID                            : 1                                             *
*Format                        : AVC                                           *
*Format/Info                   : Advanced Video Codec                          *
*Format profile                : [email protected]                                     *
*Format settings, CABAC        : Yes                                           *
*Format settings, ReFrames     : 4 frames                                      *
*Codec ID                      : V_MPEG4/ISO/AVC                               *
*Duration                      : 1h 41mn                                       *
*Bit rate                      : 3 500 Kbps                                    *
*Width                         : 1 918 pixels                                  *
*Height                        : 1 040 pixels                                  *
*Display aspect ratio          : 1.85:1                                        *
*Frame rate mode               : Variable                                      *
*Frame rate                    : 23.976 fps                                    *
*Color space                   : YUV                                           *
*Chroma subsampling            : 4:2:0                                         *
*Bit depth                     : 8 bits                                        *
*Scan type                     : Progressive                                   *
*Bits/(Pixel*Frame)            : 0.073                                         *
*Stream size                   : 2.49 GiB (88%)                                *
*Writing library               : x264 core 159                                 *
*Default                       : Yes                                           *
*Forced                        : No                                            *
*DURATION                      : 01:41:50.818000000                            *
*Color primaries               : BT.709-5, BT.1361, IEC 61966-2-4, SMPTE RP177 *
*Transfer characteristics      : BT.709-5, BT.1361                             *
*Matrix coefficients           : BT.709-5, BT.1361, IEC 61966-2-4 709, SMPTE RP*
*================================== Audio #1 ==================================*
*ID                            : 2                                             *
*Format                        : AC-3                                          *
*Format/Info                   : Audio Coding 3                                *
*Mode extension                : CM (complete main)                            *
*Format settings, Endianness   : Big                                           *
*Codec ID                      : A_AC3                                         *
*Duration                      : 1h 41mn                                       *
*Bit rate mode                 : Constant                                      *
*Bit rate                      : 192 Kbps                                      *
*Channel(s)                    : 2 channels                                    *
*Channel positions             : Front: L R                                    *
*Sampling rate                 : 48.0 KHz                                      *
*Bit depth                     : 16 bits                                       *
*Compression mode              : Lossy                                         *
*Delay relative to video       : 19ms                                          *
*Stream size                   : 140 MiB (5%)                                  *
*Title                         : Français                                      *
*Language                      : French                                        *
*Default                       : Yes                                           *
*Forced                        : No                                            *
*DURATION                      : 01:41:52.504000000                            *
*================================== Audio #2 ==================================*
*ID                            : 3                                             *
*Format                        : AC-3                                          *
*Format/Info                   : Audio Coding 3                                *
*Mode extension                : CM (complete main)                            *
*Format settings, Endianness   : Big                                           *
*Codec ID                      : A_AC3                                         *
*Duration                      : 1h 41mn                                       *
*Bit rate mode                 : Constant                                      *
*Bit rate                      : 224 Kbps                                      *
*Channel(s)                    : 2 channels                                    *
*Channel positions             : Front: L R                                    *
*Sampling rate                 : 48.0 KHz                                      *
*Bit depth                     : 16 bits                                       *
*Compression mode              : Lossy                                         *
*Delay relative to video       : -5ms                                          *
*Stream size                   : 163 MiB (6%)                                  *
*Title                         : Anglais                                       *
*Language                      : English                                       *
*Default                       : No                                            *
*Forced                        : No                                            *
*DURATION                      : 01:41:51.424000000                            *
*================================== Texte #1 ==================================*
*ID                            : 4                                             *
*Format                        : PGS                                           *
*Codec ID                      : S_HDMV/PGS                                    *
*Codec ID/Info                 : The same subtitle format used on BDs/HD-DVDs  *
*Title                         : Anglais                                       *
*Language                      : English                                       *
*Default                       : Yes                                           *
*Forced                        : Yes                                           *
*DURATION                      : 00:00:00.000000000                            *
*================================== Texte #2 ==================================*
*ID                            : 5                                             *
*Format                        : ASS                                           *
*Codec ID                      : S_TEXT/ASS                                    *
*Codec ID/Info                 : Advanced Sub Station Alpha                    *
*Compression mode              : Lossless                                      *
*Title                         : Français                                      *
*Language                      : French                                        *
*Default                       : No                                            *
*Forced                        : No                                            *
*DURATION                      : 01:41:48.031000000                            *
*================================== Texte #3 ==================================*
*ID                            : 6                                             *
*Format                        : ASS                                           *
*Codec ID                      : S_TEXT/ASS                                    *
*Codec ID/Info                 : Advanced Sub Station Alpha                    *
*Compression mode              : Lossless                                      *
*Title                         : Anglais                                       *
*Language                      : English                                       *
*Default                       : No                                            *
*Forced                        : No                                            *
*DURATION                      : 01:38:47.217000000                            *
*================================== Menu #1 ===================================*
*00:00:00.000                  : en:Chapter 1                                  *

================================================================================
*                           INFORMATION SUR LE POST                            *
================================================================================
*Taille des donnees sans par2..: 2.84 Go                                       *
*Nombre de rar.................: 39                                            *
*Taille des rar................: 76.29 Mo                                      *
*Par2..........................: 8%                                            *
*Nombre de bloc de recup.......: 191                                           *
*Taille d'un bloc..............: 1.22 Mo                                       *
*Nom a rechercher..............: BB85F65034F10712RO34ZW3R0                     *
*Posteur.......................: [email protected]                               *
*Groupes.......................: a.b.erotica                                   *


pw : O1XB0IY8IJV90B4Z3O98