19/04/2021

================================================================================
*                        Fichiers contenus dans le post                        *
================================================================================
Tout le monde aime spécial Michel Louvain french.tvrip.mp4                 42:48
================================================================================
* Duree totale du post .........: 42:48                                        *
* Taille totale du post ........: 863.41 Mo                                    *
================================================================================

================================================================================
*          Tout le monde aime spécial Michel Louvain french.tvrip.mp4          *
================================================================================
* Format                        : MPEG-4                                       *
* Format profile                : Base Media                                   *
* Codec ID                      : isom                                         *
* File size                     : 863 MiB                                      *
* Duration                      : 42mn 48s                                     *
* Overall bit rate              : 2 820 Kbps                                   *
* Writing application           : VideoReDo (Lavf56.25.101)                    *
* ================================== Video =================================== *
* ID                            : 1                                            *
* Format                        : AVC                                          *
* Format/Info                   : Advanced Video Codec                         *
* Format profile                : [email protected]                                    *
* Format settings, CABAC        : Yes                                          *
* Format settings, ReFrames     : 2 frames                                     *
* Codec ID                      : avc1                                         *
* Codec ID/Info                 : Advanced Video Coding                        *
* Duration                      : 42mn 48s                                     *
* Bit rate                      : 2 682 Kbps                                   *
* Width                         : 1 280 pixels                                 *
* Height                        : 720 pixels                                   *
* Display aspect ratio          : 16:9                                         *
* Frame rate mode               : Constant                                     *
* Frame rate                    : 29.970 fps                                   *
* Color space                   : YUV                                          *
* Chroma subsampling            : 4:2:0                                        *
* Bit depth                     : 8 bits                                       *
* Scan type                     : Progressive                                  *
* Bits/(Pixel*Frame)            : 0.097                                        *
* Stream size                   : 821 MiB (95%)                                *
* ================================= Audio #1 ================================= *
* ID                            : 2                                            *
* Format                        : AAC                                          *
* Format/Info                   : Advanced Audio Codec                         *
* Format profile                : LC                                           *
* Codec ID                      : 40                                           *
* Duration                      : 42mn 48s                                     *
* Duration_LastFrame            : -21ms                                        *
* Bit rate mode                 : Constant                                     *
* Bit rate                      : 132 Kbps                                     *
* Channel(s)                    : 2 channels                                   *
* Channel positions             : Front: L R                                   *
* Sampling rate                 : 48.0 KHz                                     *
* Compression mode              : Lossy                                        *
* Delay relative to video       : -6s 6ms                                      *
* Stream size                   : 39.8 MiB (5%)                                *
* ================================= Texte #1 ================================= *
* ID                            : 3                                            *
* Format                        : txet                                         *
* Codec ID                      : txet                                         *
* Duration                      : 42mn 48s                                     *
* Bit rate mode                 : Constant                                     *
* Bit rate                      : 0 bps                                        *
* Delay relative to video       : -6s 6ms                                      *
* Stream size                   : 115 Bytes (0%)                               *
* Language                      : English                                      *
* ================================= Texte #2 ================================= *
* ID                            : 1-CC1                                        *
* Format                        : EIA-608                                      *
* Muxing mode                   : AVC / SCTE 128 / DTVCC Transport             *
* Muxing mode, more info        : Muxed in Video #1                            *
* Duration                      : 42mn 48s                                     *
* Bit rate mode                 : Constant                                     *
* Stream size                   : 0.00 Byte (0%)                               *
* Encoded stream size           : 0.00 Byte (0%)                               *
* ================================= Texte #3 ================================= *
* ID                            : 1-1                                          *
* Format                        : EIA-708                                      *
* Muxing mode                   : AVC / SCTE 128 / DTVCC Transport             *
* Muxing mode, more info        : Muxed in Video #1                            *
* Duration                      : 42mn 48s                                     *
* Bit rate mode                 : Constant                                     *
* Stream size                   : 0.00 Byte (0%)                               *
* Encoded stream size           : 0.00 Byte (0%)                               *
* ================================= Menu #1 ================================== *
* 00:00:00.000                  : Chapter 1                                    *
* 00:10:18.918                  : Chapter 2                                    *
* 00:20:12.811                  : Chapter 3                                    *
* 00:24:51.456                  : Chapter 4                                    *
* 00:39:51.856                  : Chapter 5                                    *

================================================================================
*                           INFORMATION SUR LE POST                            *
================================================================================
* Taille des donnees sans par2..: 863.41 Mo                                    *
* Nombre de rar.................: 23                                           *
* Taille des rar................: 38.45 Mo                                     *
* Par2..........................: 10%                                          *
* Nombre de bloc de recup.......: 236                                          *
* Taille d'un bloc..............: 375.00 Ko                                    *
* Nom a rechercher..............: P60N2A34EJ3H543M8741                         *
* Posteur.......................: [email protected]                            *
* Groupes.......................: a.b.french,a.b.movies.divx.french            *


pw : RDG4Y3BF3W