21/05/2021

================================================================================
*                        Fichiers contenus dans le post                        *
================================================================================

--------------------------------------------------------------------------------
Nubiles - Harlow West Young And Restless \
--------------------------------------------------------------------------------
Nubiles - Harlow West Young And Restless.mp4                               12:43

Duree................: 12:43
Taille des fichiers..: 870.56 Mo

================================================================================
*Duree totale du post .........: 12:43                                         *
*Taille totale du post ........: 870.56 Mo                                     *
================================================================================

================================================================================
*                 Nubiles - Harlow West Young And Restless.mp4                 *
================================================================================
*Format                        : MPEG-4                                        *
*Format profile                : Base Media                                    *
*Codec ID                      : isom                                          *
*File size                     : 871 MiB                                       *
*Duration                      : 12mn 43s                                      *
*Overall bit rate              : 9 567 Kbps                                    *
*Writing application           : Lavf57.72.101                                 *
*=================================== Video ====================================*
*ID                            : 1                                             *
*Format                        : AVC                                           *
*Format/Info                   : Advanced Video Codec                          *
*Format profile                : [email protected]                                     *
*Format settings, CABAC        : Yes                                           *
*Format settings, ReFrames     : 4 frames                                      *
*Codec ID                      : avc1                                          *
*Codec ID/Info                 : Advanced Video Coding                         *
*Duration                      : 12mn 43s                                      *
*Bit rate                      : 9 362 Kbps                                    *
*Width                         : 1 920 pixels                                  *
*Height                        : 1 080 pixels                                  *
*Display aspect ratio          : 16:9                                          *
*Frame rate mode               : Constant                                      *
*Frame rate                    : 29.970 fps                                    *
*Color space                   : YUV                                           *
*Chroma subsampling            : 4:2:0                                         *
*Bit depth                     : 8 bits                                        *
*Scan type                     : Progressive                                   *
*Bits/(Pixel*Frame)            : 0.151                                         *
*Stream size                   : 852 MiB (98%)                                 *
*Writing library               : x264 core 150                                 *
*================================== Audio #1 ==================================*
*ID                            : 2                                             *
*Format                        : AAC                                           *
*Format/Info                   : Advanced Audio Codec                          *
*Format profile                : LC                                            *
*Codec ID                      : 40                                            *
*Duration                      : 12mn 43s                                      *
*Duration_LastFrame            : -3ms                                          *
*Bit rate mode                 : Constant                                      *
*Bit rate                      : 196 Kbps                                      *
*Channel(s)                    : 2 channels                                    *
*Channel positions             : Front: L R                                    *
*Sampling rate                 : 44.1 KHz                                      *
*Compression mode              : Lossy                                         *
*Delay relative to video       : -2s 2ms                                       *
*Stream size                   : 17.8 MiB (2%)                                 *
*Language                      : English                                       *

================================================================================
*                           INFORMATION SUR LE POST                            *
================================================================================
*Taille des donnees sans par2..: 870.56 Mo                                     *
*Nombre de rar.................: 23                                            *
*Taille des rar................: 38.45 Mo                                      *
*Par2..........................: 10%                                           *
*Nombre de bloc de recup.......: 143                                           *
*Taille d'un bloc..............: 625.00 Ko                                     *
*Nom a rechercher..............: RG5C8J5K1WRCR30DTPTV0T143                     *
*Posteur.......................: [email protected]                                 *
*Groupes.......................: a.b.erotica                                   *


pw : SHNW2QG3I1DI8H69O5LR