01 001010101010 10101010101010101 01010100110101001 101 1100101010 0101 110101 1
        011101010010110 10111 10 1100 0101111 01100100 1101010 101010001  0
                    10110 0101001011 0101010110 001101 01 110101 011 0111
                               10101110101010 01
                                     1010
 XXX            XXX                ^...1..^  
       XXX    XXX                 /        \  
XXX                 XXX          |    4U    |
                      XXX      xx-<(+)--(.)>-by
        XXX      XXX      XXX   x|  ~ || ~  |
   XXX                            \   oo   /
                     XXX           |::__::|
       XXX XXX   XXX                \::::/
XXX                            ____/ :::: \____ 
     XXX                     / Nihil  :: Cumster\
                            /                    \
                            \   /            \   /            ~
                            |  -     Made     -  |
                            |   \_.__/  \__._/   |         ~      
                            |   / ____at____ \   |
                            | -||  KL3V3R16  ||- |         ~  ~
____________________________|  ||____________||  |________~_~___________________
                            |  |_            _|  |          ~
                             \  || Born  in ||  /        ~  ~
                             ||||            ||||       ~ ~______
                          [][\\\\[cyberspace]////][]  ===*_____ /|
                          [][][][][][][][][][][][][]    |__NCR__|/
                          [][][][][][][][][][][][][]
                          [][][][][][][][][][][][][]
                          [][][][][][][][][][][][][]
                          [][][]__[][][]__[][][]__[]
                          \________________________/

________________________________________________________________________________

Title: WoodmanCastingX 16.12.17 Suzy Rainbow and Cassie Fire - Our first-IR-and-DP with 2 men reSize 10bit 1080p

Starring: Suzy Rainbow, Cassie Fire

Description: none

tags:
Suzy Rainbow, Cassie Fire, anal, dp, double penetration, Interracial, 1080p
black hair, ass to mouth, Blowjob, Brunette, cum in mouth, group sex, slim,
small tits, caucasian, Pussy Licking, russian, hungarian, woodmancastingx.com

__________________________________CONTENT LIST__________________________________

WoodmanCastingX 16.12.17 Suzy Rainbow and Cassie Fire - Our first-IR-and-DP with 2 men reSize 10bit 1080p.mp4|3.91GB

___________________________________MEDIA INFO___________________________________

___FILE: WoodmanCastingX 16.12.17 Suzy Rainbow and Cassie Fire - Our first-IR-and-DP with 2 men reSize 10bit 1080p.mp4
General
Format                                   : MPEG-4
Format profile                           : JVT
Codec ID                                 : avc1
File size                                : 3.92 GiB
Duration                                 : 1h 2mn
Overall bit rate mode                    : Variable
Overall bit rate                         : 9 025 Kbps
Encoded date                             : UTC 2021-06-07 03:21:05
Tagged date                              : UTC 2021-06-07 03:21:05
Writing application                      : Hybrid 2021.04.06.1
Video
ID                                       : 1
Format                                   : AVC
Format/Info                              : Advanced Video Codec
Format profile                           : High [email protected]
Format settings, CABAC                   : Yes
Format settings, ReFrames                : 4 frames
Codec ID                                 : avc1
Codec ID/Info                            : Advanced Video Coding
Duration                                 : 1h 2mn
Bit rate                                 : 8 980 Kbps
Maximum bit rate                         : 20.2 Mbps
Width                                    : 1 920 pixels
Height                                   : 1 080 pixels
Display aspect ratio                     : 16:9
Frame rate mode                          : Constant
Frame rate                               : 29.970 fps
Color space                              : YUV
Chroma subsampling                       : 4:2:0
Bit depth                                : 10 bits
Scan type                                : Progressive
Bits/(Pixel*Frame)                       : 0.144
Stream size                              : 3.90 GiB (100%)
Title                                    : Core Media Video
Writing library                          : x264 core 161 r3048 b86ae3c
Encoding settings                        : cabac=1 / ref=3 / deblock=1:0:0 / analyse=0x3:0x113 / me=hex / subme=7 / psy=1 / psy_rd=1.00:0.00 / mixed_ref=1 / me_range=16 / chroma_me=1 / trellis=2 / 8x8dct=1 / cqm=0 / deadzone=21,11 / fast_pskip=1 / chroma_qp_offset=-2 / threads=16 / lookahead_threads=2 / sliced_threads=0 / nr=0 / decimate=1 / interlaced=0 / bluray_compat=0 / constrained_intra=0 / bframes=3 / b_pyramid=2 / b_adapt=2 / b_bias=0 / direct=3 / weightb=1 / open_gop=0 / weightp=2 / keyint=500 / keyint_min=29 / scenecut=40 / intra_refresh=0 / rc_lookahead=40 / rc=crf / mbtree=1 / crf=19.0 / qcomp=0.60 / qpmin=0 / qpmax=69 / qpstep=4 / vbv_maxrate=240000 / vbv_bufsize=720000 / crf_max=0.0 / nal_hrd=none / filler=0 / ip_ratio=1.40 / aq=2:1.00
Encoded date                             : UTC 2021-06-07 03:21:05
Tagged date                              : UTC 2021-06-07 03:21:23
Matrix coefficients                      : BT.709
Audio
ID                                       : 2
Format                                   : AAC
Format/Info                              : Advanced Audio Codec
Format profile                           : HE-AACv2 / HE-AAC / LC
Codec ID                                 : 40
Duration                                 : 1h 2mn
Source duration                          : 1h 2mn
Bit rate mode                            : Variable
Bit rate                                 : 41.2 Kbps
Maximum bit rate                         : 58.8 Kbps
Channel(s)                               : 2 channels / 1 channel / 1 channel
Channel positions                        : Front: L R / Front: C / Front: C
Sampling rate                            : 44.1 KHz / 44.1 KHz / 22.05 KHz
Compression mode                         : Lossy
Delay relative to video                  : -72ms
Stream size                              : 18.3 MiB (0%)
Source stream size                       : 18.3 MiB (0%)
Title                                    : Core Media Audio
Language                                 : French
Encoded date                             : UTC 2021-06-07 00:00:45
Tagged date                              : UTC 2021-06-07 03:21:23

____________________________________THE_END_____________________________________