01 001010101010 10101010101010101 01010100110101001 101 1100101010 0101 110101 1
        011101010010110 10111 10 1100 0101111 01100100 1101010 101010001  0
                    10110 0101001011 0101010110 001101 01 110101 011 0111
                               10101110101010 01
                                     1010
 XXX            XXX                ^...1..^  
       XXX    XXX                 /        \  
XXX                 XXX          |    4U    |
                      XXX      xx-<(+)--(.)>-by
        XXX      XXX      XXX   x|  ~ || ~  |
   XXX                            \   oo   /
                     XXX           |::__::|
       XXX XXX   XXX                \::::/
XXX                            ____/ :::: \____ 
     XXX                     / Nihil  :: Cumster\
                            /                    \
                            \   /            \   /            ~
                            |  -     Made     -  |
                            |   \_.__/  \__._/   |         ~      
                            |   / ____at____ \   |
                            | -||  KL3V3R16  ||- |         ~  ~
____________________________|  ||____________||  |________~_~___________________
                            |  |_            _|  |          ~
                             \  || Born  in ||  /        ~  ~
                             ||||            ||||       ~ ~______
                          [][\\\\[cyberspace]////][]  ===*_____ /|
                          [][][][][][][][][][][][][]    |__NCR__|/
                          [][][][][][][][][][][][][]
                          [][][][][][][][][][][][][]
                          [][][][][][][][][][][][][]
                          [][][]__[][][]__[][][]__[]
                          \________________________/

________________________________________________________________________________

Title: Analvids 20.04.10 5on1 DAP TP Gandgang with Stasia Si GIO1397 fhd

Starring: Stasia Si

Description: none

Tags:
4on1, gangbang, anal, blowjob, blue eyes, brunette, anal gape, gape, gapes,
deep throat, deepthroat, double anal, DAP, facial cumshot, facial, high heels,
long hair, natural tits, shaved, slim, small ass, round ass, small, small tits,
tattoo, teen, triple penetration, TAP, white skin, russian, Stasia Si,
LegalPorno.com, AnalVids.com

__________________________________CONTENT LIST__________________________________

Analvids 20.04.10 5on1 DAP TP Gandgang with Stasia Si GIO1397 fhd.mp4|4.55GB

___________________________________MEDIA INFO___________________________________

___FILE: Analvids 20.04.10 5on1 DAP TP Gandgang with Stasia Si GIO1397 fhd.mp4
General
Format                                   : MPEG-4
Format profile                           : Base Media
Codec ID                                 : isom
File size                                : 4.55 GiB
Duration                                 : 53mn 18s
Overall bit rate                         : 12.2 Mbps
Writing application                      : Lavf58.20.100
Video
ID                                       : 2
Format                                   : AVC
Format/Info                              : Advanced Video Codec
Format profile                           : [email protected]
Format settings, CABAC                   : Yes
Format settings, ReFrames                : 4 frames
Codec ID                                 : avc1
Codec ID/Info                            : Advanced Video Coding
Duration                                 : 53mn 17s
Bit rate                                 : 12.0 Mbps
Width                                    : 1 920 pixels
Height                                   : 1 080 pixels
Display aspect ratio                     : 16:9
Frame rate mode                          : Constant
Frame rate                               : 29.970 fps
Color space                              : YUV
Chroma subsampling                       : 4:2:0
Bit depth                                : 8 bits
Scan type                                : Progressive
Bits/(Pixel*Frame)                       : 0.193
Stream size                              : 4.45 GiB (98%)
Writing library                          : x264 core 148 r2643 5c65704
Encoding settings                        : cabac=1 / ref=3 / deblock=1:0:0 / analyse=0x3:0x113 / me=hex / subme=7 / psy=1 / psy_rd=1.00:0.00 / mixed_ref=1 / me_range=16 / chroma_me=1 / trellis=1 / 8x8dct=1 / cqm=0 / deadzone=21,11 / fast_pskip=1 / chroma_qp_offset=-2 / threads=6 / lookahead_threads=1 / sliced_threads=0 / nr=0 / decimate=1 / interlaced=0 / bluray_compat=0 / constrained_intra=0 / bframes=3 / b_pyramid=2 / b_adapt=1 / b_bias=0 / direct=1 / weightb=1 / open_gop=0 / weightp=2 / keyint=250 / keyint_min=25 / scenecut=40 / intra_refresh=0 / rc_lookahead=40 / rc=abr / mbtree=1 / bitrate=12000 / ratetol=1.0 / qcomp=0.60 / qpmin=0 / qpmax=69 / qpstep=4 / ip_ratio=1.40 / aq=1:1.00
Audio
ID                                       : 1
Format                                   : AAC
Format/Info                              : Advanced Audio Codec
Format profile                           : LC
Codec ID                                 : 40
Duration                                 : 53mn 18s
Bit rate mode                            : Constant
Bit rate                                 : 273 Kbps
Channel(s)                               : 2 channels
Channel positions                        : Front: L R
Sampling rate                            : 44.1 KHz
Compression mode                         : Lossy
Delay relative to video                  : 67ms
Stream size                              : 104 MiB (2%)

____________________________________THE_END_____________________________________