01 001010101010 10101010101010101 01010100110101001 101 1100101010 0101 110101 1
        011101010010110 10111 10 1100 0101111 01100100 1101010 101010001  0
                    10110 0101001011 0101010110 001101 01 110101 011 0111
                               10101110101010 01
                                     1010
 XXX            XXX                ^...1..^  
       XXX    XXX                 /        \  
XXX                 XXX          |    4U    |
                      XXX      xx-<(+)--(.)>-by
        XXX      XXX      XXX   x|  ~ || ~  |
   XXX                            \   oo   /
                     XXX           |::__::|
       XXX XXX   XXX                \::::/
XXX                            ____/ :::: \____ 
     XXX                     / Nihil  :: Cumster\
                            /                    \
                            \   /            \   /            ~
                            |  -     Made     -  |
                            |   \_.__/  \__._/   |         ~      
                            |   / ____at____ \   |
                            | -||  KL3V3R16  ||- |         ~  ~
____________________________|  ||____________||  |________~_~___________________
                            |  |_            _|  |          ~
                             \  || Born  in ||  /        ~  ~
                             ||||            ||||       ~ ~______
                          [][\\\\[cyberspace]////][]  ===*_____ /|
                          [][][][][][][][][][][][][]    |__NCR__|/
                          [][][][][][][][][][][][][]
                          [][][][][][][][][][][][][]
                          [][][][][][][][][][][][][]
                          [][][]__[][][]__[][][]__[]
                          \________________________/

________________________________________________________________________________

Title: WoodmanCastingX 06.05.27 Dido Angel casting 1080p

Starring: Dido Angel

Description:
A czech girl, Dido Angel has an audition with Pierre Woodman. She will answer
general questions about her life and sexual fantasies and experience. Then Dido
Angel will undress to show her body naked. She will be asked to show her body
in doggy style and missionary position on a sofa.
Then Pierre convince Dido Angel to have a 100 percent real sex with him,and he
will make her an Anal demonstration of his secret technic.Pierre Woodman will
make her cum like no others ! This is Dido Angel sex Testing casting X ! 

Tags:
WoodmanCastingX.com, Dido Angel, czech, teen, petite, slim, small tits, cute,
shaved, blonde, anal, teeny, cum in mouth, casting

__________________________________CONTENT LIST__________________________________

WoodmanCastingX 06.05.27 Dido Angel casting 1080p.mp4|1.87GB

___________________________________MEDIA INFO___________________________________

___FILE: WoodmanCastingX 06.05.27 Dido Angel casting 1080p.mp4
General
Format                                   : MPEG-4
Format profile                           : Base Media / Version 2
Codec ID                                 : mp42
File size                                : 1.87 GiB
Duration                                 : 1h 1mn
Overall bit rate mode                    : Variable
Overall bit rate                         : 4 365 Kbps
Encoded date                             : UTC 2009-09-03 02:24:52
Tagged date                              : UTC 2009-09-03 02:26:21
Video
ID                                       : 2
Format                                   : AVC
Format/Info                              : Advanced Video Codec
Format profile                           : [email protected]
Format settings, CABAC                   : No
Format settings, ReFrames                : 2 frames
Codec ID                                 : avc1
Codec ID/Info                            : Advanced Video Coding
Duration                                 : 1h 1mn
Bit rate mode                            : Variable
Bit rate                                 : 4 230 Kbps
Maximum bit rate                         : 5 005 Kbps
Width                                    : 1 920 pixels
Height                                   : 1 080 pixels
Display aspect ratio                     : 16:9
Frame rate mode                          : Constant
Frame rate                               : 25.000 fps
Color space                              : YUV
Chroma subsampling                       : 4:2:0
Bit depth                                : 8 bits
Scan type                                : Progressive
Bits/(Pixel*Frame)                       : 0.082
Stream size                              : 1.82 GiB (97%)
Language                                 : English
Encoded date                             : UTC 2009-09-03 02:20:31
Tagged date                              : UTC 2009-09-03 02:26:21
Color primaries                          : BT.709
Transfer characteristics                 : BT.709
Matrix coefficients                      : BT.709
Audio
ID                                       : 1
Format                                   : AAC
Format/Info                              : Advanced Audio Codec
Format profile                           : LC
Codec ID                                 : 40
Duration                                 : 1h 1mn
Bit rate mode                            : Constant
Bit rate                                 : 128 Kbps
Channel(s)                               : 2 channels
Channel positions                        : Front: L R
Sampling rate                            : 44.1 KHz
Compression mode                         : Lossy
Delay relative to video                  : 40ms
Stream size                              : 57.1 MiB (3%)
Language                                 : English
Encoded date                             : UTC 2009-09-03 02:20:31
Tagged date                              : UTC 2009-09-03 02:26:21

____________________________________THE_END_____________________________________