01 001010101010 10101010101010101 01010100110101001 101 1100101010 0101 110101 1
        011101010010110 10111 10 1100 0101111 01100100 1101010 101010001  0
                    10110 0101001011 0101010110 001101 01 110101 011 0111
                               10101110101010 01
                                     1010
 XXX            XXX                ^...1..^  
       XXX    XXX                 /        \  
XXX                 XXX          |    4U    |
                      XXX      xx-<(+)--(.)>-by
        XXX      XXX      XXX   x|  ~ || ~  |
   XXX                            \   oo   /
                     XXX           |::__::|
       XXX XXX   XXX                \::::/
XXX                            ____/ :::: \____ 
     XXX                     / Nihil  :: Cumster\
                            /                    \
                            \   /            \   /            ~
                            |  -     Made     -  |
                            |   \_.__/  \__._/   |         ~      
                            |   / ____at____ \   |
                            | -||  KL3V3R16  ||- |         ~  ~
____________________________|  ||____________||  |________~_~___________________
                            |  |_            _|  |          ~
                             \  || Born  in ||  /        ~  ~
                             ||||            ||||       ~ ~______
                          [][\\\\[cyberspace]////][]  ===*_____ /|
                          [][][][][][][][][][][][][]    |__NCR__|/
                          [][][][][][][][][][][][][]
                          [][][][][][][][][][][][][]
                          [][][][][][][][][][][][][]
                          [][][]__[][][]__[][][]__[]
                          \________________________/

________________________________________________________________________________

Title: WoodmanCastingX 10.04.03 Dido Angel - XXXX - bathroom 1 boy 1080p

Starring: Dido Angel

Description: none

Tags:
WoodmanCastingX.com, Dido Angel, czech, teen, petite, slim, small tits, cute,
shaved, blonde, teeny, 1on1, straight, cum in mouth

__________________________________CONTENT LIST__________________________________

WoodmanCastingX 10.04.03 Dido Angel - XXXX - bathroom 1 boy 1080p.mp4|1.32GB

___________________________________MEDIA INFO___________________________________

___FILE: WoodmanCastingX 10.04.03 Dido Angel - XXXX - bathroom 1 boy 1080p.mp4
General
Format                                   : MPEG-4
Format profile                           : Base Media
Codec ID                                 : isom
File size                                : 1.33 GiB
Duration                                 : 25mn 57s
Overall bit rate mode                    : Variable
Overall bit rate                         : 7 321 Kbps
Writing application                      : Lavf54.29.104
Video
ID                                       : 1
Format                                   : AVC
Format/Info                              : Advanced Video Codec
Format profile                           : [email protected]
Format settings, CABAC                   : No
Format settings, ReFrames                : 2 frames
Format settings, GOP                     : M=2, N=24
Codec ID                                 : avc1
Codec ID/Info                            : Advanced Video Coding
Duration                                 : 25mn 57s
Bit rate                                 : 7 150 Kbps
Width                                    : 1 920 pixels
Height                                   : 1 080 pixels
Display aspect ratio                     : 16:9
Frame rate mode                          : Constant
Frame rate                               : 25.000 fps
Color space                              : YUV
Chroma subsampling                       : 4:2:0
Bit depth                                : 8 bits
Scan type                                : Progressive
Bits/(Pixel*Frame)                       : 0.138
Stream size                              : 1.30 GiB (98%)
Language                                 : English
Color primaries                          : BT.709
Transfer characteristics                 : BT.709
Matrix coefficients                      : BT.709
Audio
ID                                       : 2
Format                                   : AAC
Format/Info                              : Advanced Audio Codec
Format profile                           : LC
Codec ID                                 : 40
Duration                                 : 25mn 57s
Duration_LastFrame                       : -5ms
Bit rate mode                            : Variable
Bit rate                                 : 165 Kbps
Maximum bit rate                         : 192 Kbps
Channel(s)                               : 2 channels
Channel positions                        : Front: L R
Sampling rate                            : 48.0 KHz
Compression mode                         : Lossy
Delay relative to video                  : 40ms
Stream size                              : 30.6 MiB (2%)
Language                                 : English

____________________________________THE_END_____________________________________