01 001010101010 10101010101010101 01010100110101001 101 1100101010 0101 110101 1
        011101010010110 10111 10 1100 0101111 01100100 1101010 101010001  0
                    10110 0101001011 0101010110 001101 01 110101 011 0111
                               10101110101010 01
                                     1010
 XXX            XXX                ^...1..^  
       XXX    XXX                 /        \  
XXX                 XXX          |    4U    |
                      XXX      xx-<(+)--(.)>-by
        XXX      XXX      XXX   x|  ~ || ~  |
   XXX                            \   oo   /
                     XXX           |::__::|
       XXX XXX   XXX                \::::/
XXX                            ____/ :::: \____ 
     XXX                     / Nihil  :: Cumster\
                            /                    \
                            \   /            \   /            ~
                            |  -     Made     -  |
                            |   \_.__/  \__._/   |         ~      
                            |   / ____at____ \   |
                            | -||  KL3V3R16  ||- |         ~  ~
____________________________|  ||____________||  |________~_~___________________
                            |  |_            _|  |          ~
                             \  || Born  in ||  /        ~  ~
                             ||||            ||||       ~ ~______
                          [][\\\\[cyberspace]////][]  ===*_____ /|
                          [][][][][][][][][][][][][]    |__NCR__|/
                          [][][][][][][][][][][][][]
                          [][][][][][][][][][][][][]
                          [][][][][][][][][][][][][]
                          [][][]__[][][]__[][][]__[]
                          \________________________/

________________________________________________________________________________

Title: WoodmanCastingX 11.02.13 Angel Rivas and Dido Angel - XXXX - bed 1 boy 1080p

Starring: Dido Angel, Angel Rivas

Description: none

Tags:
WoodmanCastingX.com, Dido Angel, czech, teen, petite, slim, small tits, cute,
shaved, blonde, teeny, bgg, blowjob, anal, orgy, threesome, cum in mouth,
Angel Rivas, russian, dark hair

__________________________________CONTENT LIST__________________________________

WoodmanCastingX 11.02.13 Angel Rivas and Dido Angel - XXXX - bed 1 boy 1080p.mp4|1.76GB

___________________________________MEDIA INFO___________________________________

___FILE: WoodmanCastingX 11.02.13 Angel Rivas and Dido Angel - XXXX - bed 1 boy 1080p.mp4
General
Format                                   : MPEG-4
Format profile                           : QuickTime
Codec ID                                 : qt  
File size                                : 1.77 GiB
Duration                                 : 30mn 26s
Overall bit rate                         : 8 321 Kbps
Encoded date                             : UTC 2011-02-12 13:48:50
Tagged date                              : UTC 2011-02-12 13:49:40
Writing library                          : Apple QuickTime
Video
ID                                       : 2
Format                                   : AVC
Format/Info                              : Advanced Video Codec
Format profile                           : [email protected]
Format settings, CABAC                   : No
Format settings, ReFrames                : 2 frames
Format settings, GOP                     : M=2, N=24
Codec ID                                 : avc1
Codec ID/Info                            : Advanced Video Coding
Duration                                 : 30mn 26s
Source duration                          : 45mn 51s
Source_Duration_LastFrame                : 15mn 25s
Bit rate                                 : 8 187 Kbps
Width                                    : 1 920 pixels
Height                                   : 1 080 pixels
Display aspect ratio                     : 16:9
Frame rate mode                          : Constant
Frame rate                               : 25.000 fps
Color space                              : YUV
Chroma subsampling                       : 4:2:0
Bit depth                                : 8 bits
Scan type                                : Progressive
Bits/(Pixel*Frame)                       : 0.158
Stream size                              : 1.74 GiB (98%)
Source stream size                       : 1.74 GiB (98%)
Title                                    : Module de gestion vidŽo / Gestionnaire dÕalias Apple
Language                                 : English
Encoded date                             : UTC 2011-02-12 11:03:28
Tagged date                              : UTC 2011-02-12 13:49:40
Color primaries                          : BT.709
Transfer characteristics                 : BT.709
Matrix coefficients                      : BT.709
Audio
ID                                       : 1
Format                                   : AAC
Format/Info                              : Advanced Audio Codec
Format profile                           : LC
Codec ID                                 : 40
Duration                                 : 30mn 26s
Source duration                          : 30mn 26s
Bit rate mode                            : Constant
Bit rate                                 : 128 Kbps
Channel(s)                               : 2 channels
Channel positions                        : Front: L R
Sampling rate                            : 48.0 KHz
Compression mode                         : Lossy
Stream size                              : 28.1 MiB (2%)
Source stream size                       : 28.1 MiB (2%)
Title                                    : Module de gestion sonore / Gestionnaire dÕalias Apple
Language                                 : English
Encoded date                             : UTC 2011-02-12 11:03:28
Tagged date                              : UTC 2011-02-12 13:49:40

____________________________________THE_END_____________________________________