01 001010101010 10101010101010101 01010100110101001 101 1100101010 0101 110101 1
        011101010010110 10111 10 1100 0101111 01100100 1101010 101010001  0
                    10110 0101001011 0101010110 001101 01 110101 011 0111
                               10101110101010 01
                                     1010
 XXX            XXX                ^...1..^  
       XXX    XXX                 /        \  
XXX                 XXX          |    4U    |
                      XXX      xx-<(+)--(.)>-by
        XXX      XXX      XXX   x|  ~ || ~  |
   XXX                            \   oo   /
                     XXX           |::__::|
       XXX XXX   XXX                \::::/
XXX                            ____/ :::: \____ 
     XXX                     / Nihil  :: Cumster\
                            /                    \
                            \   /            \   /            ~
                            |  -     Made     -  |
                            |   \_.__/  \__._/   |         ~      
                            |   / ____at____ \   |
                            | -||  KL3V3R16  ||- |         ~  ~
____________________________|  ||____________||  |________~_~___________________
                            |  |_            _|  |          ~
                             \  || Born  in ||  /        ~  ~
                             ||||            ||||       ~ ~______
                          [][\\\\[cyberspace]////][]  ===*_____ /|
                          [][][][][][][][][][][][][]    |__NCR__|/
                          [][][][][][][][][][][][][]
                          [][][][][][][][][][][][][]
                          [][][][][][][][][][][][][]
                          [][][]__[][][]__[][][]__[]
                          \________________________/

________________________________________________________________________________

Title: WoodmanCastingX 11.11.23 Dido Angel - XXXX - DP bukkake party 13 boys 1080p

Starring: Dido Angel

Description: none

Tags:
WoodmanCastingX.com, Dido Angel, czech, teen, petite, slim, small tits, cute,
shaved, blonde, teeny, gangbang, blowjob, pussy licking, anal, bukkake,
double penetration, sperm, cum, cumshot, massive facials, facial,
facial cumshot, cum in mouth

__________________________________CONTENT LIST__________________________________

WoodmanCastingX 11.11.23 Dido Angel - XXXX - DP bukkake party 13 boys 1080p.wmv|3.39GB

___________________________________MEDIA INFO___________________________________

___FILE: WoodmanCastingX 11.11.23 Dido Angel - XXXX - DP bukkake party 13 boys 1080p.wmv
General
Format                                   : Windows Media
File size                                : 3.39 GiB
Duration                                 : 47mn 31s
Overall bit rate                         : 10.2 Mbps
Maximum Overall bit rate                 : 10.1 Mbps
Encoded date                             : UTC 1970-01-01 00:00:00.000
WM/EncodingSettings                      : Lavf52.64.2
Video
ID                                       : 1
Format                                   : WMV2
Codec ID                                 : WMV2
Codec ID/Info                            : Windows Media Video 8
Description of the codec                 : wmv2
Duration                                 : 47mn 31s
Bit rate                                 : 9 676 Kbps
Width                                    : 1 920 pixels
Height                                   : 1 080 pixels
Display aspect ratio                     : 16:9
Frame rate                               : 25.000 fps
Bit depth                                : 8 bits
Bits/(Pixel*Frame)                       : 0.187
Stream size                              : 3.21 GiB (95%)
Audio
ID                                       : 2
Format                                   : WMA
Format version                           : Version 2
Codec ID                                 : 161
Codec ID/Info                            : Windows Media Audio
Description of the codec                 : Windows Media Audio V8
Duration                                 : 47mn 31s
Bit rate                                 : 128 Kbps
Channel(s)                               : 2 channels
Sampling rate                            : 44.1 KHz
Bit depth                                : 16 bits
Stream size                              : 43.5 MiB (1%)

____________________________________THE_END_____________________________________