23/06/2021

================================================================================
*                        Fichiers contenus dans le post                        *
================================================================================

--------------------------------------------------------------------------------
Bang PrettyAndRaw - Sofie Reyez 1080p \
--------------------------------------------------------------------------------
42113d118c65466e970e61c50f0ff1ee.mp4                                       31:18

Duree................: 31:18
Taille des fichiers..: 1.36 Go

================================================================================
*Duree totale du post .........: 31:18                                         *
*Taille totale du post ........: 1.36 Go                                       *
================================================================================

================================================================================
*                     42113d118c65466e970e61c50f0ff1ee.mp4                     *
================================================================================
*Format                        : MPEG-4                                        *
*Format profile                : Base Media                                    *
*Codec ID                      : isom                                          *
*File size                     : 1.36 GiB                                      *
*Duration                      : 31mn 18s                                      *
*Overall bit rate mode         : Variable                                      *
*Overall bit rate              : 6 211 Kbps                                    *
*Encoded date                  : UTC 2021-02-17 12:39:30                       *
*Tagged date                   : UTC 2021-02-17 12:39:30                       *
*=================================== Video ====================================*
*ID                            : 1                                             *
*Format                        : AVC                                           *
*Format/Info                   : Advanced Video Codec                          *
*Format profile                : [email protected]                                     *
*Format settings, CABAC        : Yes                                           *
*Format settings, ReFrames     : 3 frames                                      *
*Codec ID                      : avc1                                          *
*Codec ID/Info                 : Advanced Video Coding                         *
*Duration                      : 31mn 18s                                      *
*Bit rate                      : 6 081 Kbps                                    *
*Maximum bit rate              : 9 137 Kbps                                    *
*Width                         : 1 920 pixels                                  *
*Height                        : 1 080 pixels                                  *
*Display aspect ratio          : 16:9                                          *
*Frame rate mode               : Constant                                      *
*Frame rate                    : 29.970 fps                                    *
*Color space                   : YUV                                           *
*Chroma subsampling            : 4:2:0                                         *
*Bit depth                     : 8 bits                                        *
*Scan type                     : Progressive                                   *
*Bits/(Pixel*Frame)            : 0.098                                         *
*Stream size                   : 1.33 GiB (98%)                                *
*Writing library               : Zencoder Video Encoding System                *
*Encoded date                  : UTC 2021-02-17 12:14:07                       *
*Tagged date                   : UTC 2021-02-17 12:39:32                       *
*Color primaries               : BT.709-5, BT.1361, IEC 61966-2-4, SMPTE RP177 *
*Transfer characteristics      : BT.709-5, BT.1361                             *
*Matrix coefficients           : BT.709-5, BT.1361, IEC 61966-2-4 709, SMPTE RP*
*================================== Audio #1 ==================================*
*ID                            : 2                                             *
*Format                        : AAC                                           *
*Format/Info                   : Advanced Audio Codec                          *
*Format profile                : LC                                            *
*Codec ID                      : 40                                            *
*Duration                      : 31mn 18s                                      *
*Bit rate mode                 : Variable                                      *
*Bit rate                      : 128 Kbps                                      *
*Maximum bit rate              : 142 Kbps                                      *
*Channel(s)                    : 2 channels                                    *
*Channel positions             : Front: L R                                    *
*Sampling rate                 : 48.0 KHz                                      *
*Compression mode              : Lossy                                         *
*Stream size                   : 28.7 MiB (2%)                                 *
*Language                      : English                                       *
*Encoded date                  : UTC 2021-02-17 12:14:06                       *
*Tagged date                   : UTC 2021-02-17 12:39:32                       *

================================================================================
*                           INFORMATION SUR LE POST                            *
================================================================================
*Taille des donnees sans par2..: 1.36 Go                                       *
*Nombre de rar.................: 25                                            *
*Taille des rar................: 57.37 Mo                                      *
*Par2..........................: 9%                                            *
*Nombre de bloc de recup.......: 206                                           *
*Taille d'un bloc..............: 625.00 Ko                                     *
*Nom a rechercher..............: D9ZJTEHE9F33GSF94LR4L0J4A                     *
*Posteur.......................: [email protected]                            *
*Groupes.......................: a.b.erotica                                   *


pw : P9E6GSY53535LAG80942