23/06/2021

================================================================================
*                        Fichiers contenus dans le post                        *
================================================================================

--------------------------------------------------------------------------------
BangBros18 - Penelope Kay 1080p \
--------------------------------------------------------------------------------
e997f81e4a434d5983a779eb69bacf78.mp4                                       33:29

Duree................: 33:29
Taille des fichiers..: 2.36 Go

================================================================================
*Duree totale du post .........: 33:29                                         *
*Taille totale du post ........: 2.36 Go                                       *
================================================================================

================================================================================
*                     e997f81e4a434d5983a779eb69bacf78.mp4                     *
================================================================================
*Format                        : MPEG-4                                        *
*Format profile                : Base Media / Version 2                        *
*Codec ID                      : mp42                                          *
*File size                     : 2.36 GiB                                      *
*Duration                      : 33mn 29s                                      *
*Overall bit rate mode         : Variable                                      *
*Overall bit rate              : 10.1 Mbps                                     *
*Encoded date                  : UTC 2021-04-10 00:41:33                       *
*Tagged date                   : UTC 2021-04-10 00:41:46                       *
*©TIM                          : 00;00;00;00                                   *
*©TSC                          : 30000                                         *
*©TSZ                          : 1001                                          *
*=================================== Video ====================================*
*ID                            : 1                                             *
*Format                        : AVC                                           *
*Format/Info                   : Advanced Video Codec                          *
*Format profile                : [email protected]                                     *
*Format settings, CABAC        : Yes                                           *
*Format settings, ReFrames     : 4 frames                                      *
*Codec ID                      : avc1                                          *
*Codec ID/Info                 : Advanced Video Coding                         *
*Duration                      : 33mn 29s                                      *
*Bit rate                      : 10.0 Mbps                                     *
*Width                         : 1 920 pixels                                  *
*Height                        : 1 080 pixels                                  *
*Display aspect ratio          : 16:9                                          *
*Frame rate mode               : Constant                                      *
*Frame rate                    : 29.970 fps                                    *
*Color space                   : YUV                                           *
*Chroma subsampling            : 4:2:0                                         *
*Bit depth                     : 8 bits                                        *
*Scan type                     : Progressive                                   *
*Bits/(Pixel*Frame)            : 0.161                                         *
*Stream size                   : 2.34 GiB (99%)                                *
*Encoded date                  : UTC 2021-04-10 00:41:33                       *
*Tagged date                   : UTC 2021-04-10 00:41:33                       *
*Color primaries               : BT.709-5, BT.1361, IEC 61966-2-4, SMPTE RP177 *
*Transfer characteristics      : BT.709-5, BT.1361                             *
*Matrix coefficients           : BT.709-5, BT.1361, IEC 61966-2-4 709, SMPTE RP*
*================================== Audio #1 ==================================*
*ID                            : 2                                             *
*Format                        : AAC                                           *
*Format/Info                   : Advanced Audio Codec                          *
*Format profile                : LC                                            *
*Codec ID                      : 40                                            *
*Duration                      : 33mn 29s                                      *
*Source duration               : 33mn 29s                                      *
*Bit rate mode                 : Variable                                      *
*Bit rate                      : 48.0 Kbps                                     *
*Maximum bit rate              : 73.5 Kbps                                     *
*Channel(s)                    : 2 channels                                    *
*Channel positions             : Front: L R                                    *
*Sampling rate                 : 32.0 KHz                                      *
*Compression mode              : Lossy                                         *
*Delay relative to video       : -11ms                                         *
*Stream size                   : 11.1 MiB (0%)                                 *
*Source stream size            : 11.1 MiB (0%)                                 *
*Language                      : English                                       *
*Encoded date                  : UTC 2021-04-10 00:41:33                       *
*Tagged date                   : UTC 2021-04-10 00:41:33                       *

================================================================================
*                           INFORMATION SUR LE POST                            *
================================================================================
*Taille des donnees sans par2..: 2.36 Go                                       *
*Nombre de rar.................: 32                                            *
*Taille des rar................: 76.29 Mo                                      *
*Par2..........................: 8%                                            *
*Nombre de bloc de recup.......: 159                                           *
*Taille d'un bloc..............: 1.22 Mo                                       *
*Nom a rechercher..............: F62H4640PJ08J95S0DRC52V3S                     *
*Posteur.......................: [email protected]                              *
*Groupes.......................: a.b.erotica                                   *


pw : 6Q7G685D672ME22R30T8