23/06/2021

================================================================================
*                        Fichiers contenus dans le post                        *
================================================================================

--------------------------------------------------------------------------------
BangBus - Camila Cortez 1080p \
--------------------------------------------------------------------------------
f916b745c2534b9eb9cb25f9be6d241b.mp4                                       50:53

Duree................: 50:53
Taille des fichiers..: 3.55 Go

================================================================================
*Duree totale du post .........: 50:53                                         *
*Taille totale du post ........: 3.55 Go                                       *
================================================================================

================================================================================
*                     f916b745c2534b9eb9cb25f9be6d241b.mp4                     *
================================================================================
*Format                        : MPEG-4                                        *
*Format profile                : Base Media / Version 2                        *
*Codec ID                      : mp42                                          *
*File size                     : 3.55 GiB                                      *
*Duration                      : 50mn 53s                                      *
*Overall bit rate mode         : Variable                                      *
*Overall bit rate              : 9 989 Kbps                                    *
*Encoded date                  : UTC 2021-03-30 00:58:58                       *
*Tagged date                   : UTC 2021-03-30 00:59:14                       *
*©TIM                          : 00;00;00;00                                   *
*©TSC                          : 30000                                         *
*©TSZ                          : 1001                                          *
*=================================== Video ====================================*
*ID                            : 1                                             *
*Format                        : AVC                                           *
*Format/Info                   : Advanced Video Codec                          *
*Format profile                : [email protected]                                     *
*Format settings, CABAC        : Yes                                           *
*Format settings, ReFrames     : 4 frames                                      *
*Codec ID                      : avc1                                          *
*Codec ID/Info                 : Advanced Video Coding                         *
*Duration                      : 50mn 53s                                      *
*Bit rate                      : 9 938 Kbps                                    *
*Width                         : 1 920 pixels                                  *
*Height                        : 1 080 pixels                                  *
*Display aspect ratio          : 16:9                                          *
*Frame rate mode               : Constant                                      *
*Frame rate                    : 29.970 fps                                    *
*Color space                   : YUV                                           *
*Chroma subsampling            : 4:2:0                                         *
*Bit depth                     : 8 bits                                        *
*Scan type                     : Progressive                                   *
*Bits/(Pixel*Frame)            : 0.160                                         *
*Stream size                   : 3.53 GiB (99%)                                *
*Encoded date                  : UTC 2021-03-30 00:58:58                       *
*Tagged date                   : UTC 2021-03-30 00:58:58                       *
*Color primaries               : BT.709-5, BT.1361, IEC 61966-2-4, SMPTE RP177 *
*Transfer characteristics      : BT.709-5, BT.1361                             *
*Matrix coefficients           : BT.709-5, BT.1361, IEC 61966-2-4 709, SMPTE RP*
*================================== Audio #1 ==================================*
*ID                            : 2                                             *
*Format                        : AAC                                           *
*Format/Info                   : Advanced Audio Codec                          *
*Format profile                : LC                                            *
*Codec ID                      : 40                                            *
*Duration                      : 50mn 53s                                      *
*Source duration               : 50mn 53s                                      *
*Bit rate mode                 : Variable                                      *
*Bit rate                      : 48.0 Kbps                                     *
*Maximum bit rate              : 73.0 Kbps                                     *
*Channel(s)                    : 2 channels                                    *
*Channel positions             : Front: L R                                    *
*Sampling rate                 : 32.0 KHz                                      *
*Compression mode              : Lossy                                         *
*Delay relative to video       : -11ms                                         *
*Stream size                   : 16.8 MiB (0%)                                 *
*Source stream size            : 16.8 MiB (0%)                                 *
*Language                      : English                                       *
*Encoded date                  : UTC 2021-03-30 00:58:58                       *
*Tagged date                   : UTC 2021-03-30 00:58:58                       *

================================================================================
*                           INFORMATION SUR LE POST                            *
================================================================================
*Taille des donnees sans par2..: 3.55 Go                                       *
*Nombre de rar.................: 48                                            *
*Taille des rar................: 76.29 Mo                                      *
*Par2..........................: 7%                                            *
*Nombre de bloc de recup.......: 139                                           *
*Taille d'un bloc..............: 1.83 Mo                                       *
*Nom a rechercher..............: R76C2P04P06711AIR9C6K7763                     *
*Posteur.......................: [email protected]                              *
*Groupes.......................: a.b.erotica                                   *


pw : 325YK8U89H0EB700BI5Z