foobar2000 1.6.2 / Dynamic Range Meter 1.1.1
log date: 2021-01-30 11:11:25

--------------------------------------------------------------------------------
Analyzed: Steven Wilson / THE FUTURE BITES
--------------------------------------------------------------------------------

DR         Peak         RMS     Duration Track
--------------------------------------------------------------------------------
DR10      -2.10 dB   -18.84 dB      1:06 01-UNSELF
DR9        0.00 dB   -11.34 dB      2:56 02-SELF
DR9        0.00 dB   -11.06 dB      4:06 03-KING GHOST
DR10      -0.17 dB   -11.24 dB      4:43 04-12 THINGS I FORGOT
DR10       0.00 dB   -12.69 dB      3:53 05-EMINENT SLEAZE
DR10       0.00 dB   -12.76 dB      4:42 06-MAN OF THE PEOPLE
DR9        0.00 dB   -11.42 dB      9:49 07-PERSONAL SHOPPER
DR9        0.00 dB   -10.75 dB      4:40 08-FOLLOWER
DR11      -0.10 dB   -13.99 dB      6:08 09-COUNT OF UNEASE
--------------------------------------------------------------------------------

Number of tracks:  9
Official DR value: DR10

Samplerate:        44100 Hz
Channels:          2
Bitrate:           320 kbps
Codec:             MP3
================================================================================