General
Complete name                            : NFL.2021.10.17.Dolphins.at.Jaguars.1080p.60fps.HDTV.AAC2.0.H264-720pier.mkv
Format                                   : Matroska
Format version                           : Version 4
File size                                : 10.5 GiB
Duration                                 : 2 h 24 min
Overall bit rate                         : 10.5 Mb/s

Video
ID                                       : 1
Format                                   : AVC
Format/Info                              : Advanced Video Codec
Format profile                           : [email protected]
Format settings                          : CABAC / 3 Ref Frames
Format settings, CABAC                   : Yes
Format settings, Reference frames        : 3 frames
Codec ID                                 : V_MPEG4/ISO/AVC
Duration                                 : 2 h 24 min
Bit rate mode                            : Constant
Bit rate                                 : 10.3 Mb/s
Nominal bit rate                         : 9 000 kb/s
Width                                    : 1 920 pixels
Height                                   : 1 080 pixels
Display aspect ratio                     : 16:9
Frame rate mode                          : Constant
Frame rate                               : 59.940 (59940/1000) FPS
Original frame rate                      : 59.940 (60000/1001) FPS
Standard                                 : NTSC
Color space                              : YUV
Chroma subsampling                       : 4:2:0
Bit depth                                : 8 bits
Scan type                                : Progressive
Bits/(Pixel*Frame)                       : 0.083
Stream size                              : 10.4 GiB (99%)
Default                                  : Yes
Forced                                   : No
Color range                              : Limited

Audio
ID                                       : 2
Format                                   : AAC LC
Format/Info                              : Advanced Audio Codec Low Complexity
Codec ID                                 : A_AAC-2
Duration                                 : 2 h 24 min
Bit rate                                 : 125 kb/s
Channel(s)                               : 2 channels
Channel layout                           : L R
Sampling rate                            : 48.0 kHz
Frame rate                               : 46.875 FPS (1024 SPF)
Compression mode                         : Lossy
Delay relative to video                  : 19 ms
Stream size                              : 129 MiB (1%)
Default                                  : Yes
Forced                                   : No