General
Format                                   : AVI
Format/Info                              : Audio Video Interleave
File size                                : 1 015 MiB
Duration                                 : 1 h 26 min
Overall bit rate                         : 1 641 kb/s
Writing application                      : Lavf54.6.101

Video
ID                                       : 0
Format                                   : xvid
Codec ID                                 : xvid
Duration                                 : 1 h 26 min
Bit rate                                 : 1 500 kb/s
Width                                    : 640 pixels
Height                                   : 480 pixels
Display aspect ratio                     : 4:3
Frame rate                               : 29.970 (30000/1001) FPS
Scan type                                : Progressive
Bits/(Pixel*Frame)                       : 0.163
Stream size                              : 928 MiB (91%)

Audio
ID                                       : 1
Format                                   : MPEG Audio
Format version                           : Version 1
Format profile                           : Layer 3
Format settings                          : Joint stereo / MS Stereo
Codec ID                                 : 55
Codec ID/Hint                            : MP3
Duration                                 : 1 h 26 min
Bit rate mode                            : Constant
Bit rate                                 : 128 kb/s
Channel(s)                               : 2 channels
Sampling rate                            : 44.1 kHz
Compression mode                         : Lossy
Stream size                              : 79.2 MiB (8%)
Alignment                                : Aligned on interleaves
Interleave, duration                     : 26  ms (0.78 video frame)
Interleave, preload duration             : 78  ms