General
Unique ID                                : 233109852746519742238757510190056582110 (0xAF5F531741C447F6C5213DB679C7ABDE)
Complete name                            : Creepshow.S03E05.Time.Out.The.Things.In.Oakwoods.Past.1080p.AMZN.WEB-DL.DDP2.0.H.264-FLUX.mkv
Format                                   : Matroska
Format version                           : Version 4
File size                                : 2.18 GiB
Duration                                 : 45 min 1 s
Overall bit rate                         : 6 926 kb/s
Movie name                               : Creepshow - S03E05 - Time Out The Things In Oakwoods Past
Encoded date                             : UTC 2021-10-21 04:55:44
Writing application                      : mkvmerge v61.0.0 ('So') 64-bit
Writing library                          : libebml v1.4.2 + libmatroska v1.6.4
IMDB                                     : tt8762206
TMDB                                     : tv/86686

Video
ID                                       : 1
Format                                   : AVC
Format/Info                              : Advanced Video Codec
Format profile                           : [email protected]
Format settings                          : CABAC / 4 Ref Frames
Format settings, CABAC                   : Yes
Format settings, Reference frames        : 4 frames
Codec ID                                 : V_MPEG4/ISO/AVC
Duration                                 : 45 min 1 s
Bit rate mode                            : Constant
Bit rate                                 : 6 700 kb/s
Nominal bit rate                         : 10 000 kb/s
Width                                    : 1 920 pixels
Height                                   : 1 080 pixels
Display aspect ratio                     : 16:9
Frame rate mode                          : Constant
Frame rate                               : 24.000 FPS
Color space                              : YUV
Chroma subsampling                       : 4:2:0
Bit depth                                : 8 bits
Scan type                                : Progressive
Bits/(Pixel*Frame)                       : 0.135
Stream size                              : 2.11 GiB (97%)
Default                                  : Yes
Forced                                   : No
Color range                              : Limited
Color primaries                          : BT.709
Transfer characteristics                 : BT.709
Matrix coefficients                      : BT.709

Audio
ID                                       : 2
Format                                   : E-AC-3
Format/Info                              : Enhanced AC-3
Commercial name                          : Dolby Digital Plus
Codec ID                                 : A_EAC3
Duration                                 : 45 min 1 s
Bit rate mode                            : Constant
Bit rate                                 : 224 kb/s
Channel(s)                               : 2 channels
Channel layout                           : L R
Sampling rate                            : 48.0 kHz
Frame rate                               : 31.250 FPS (1536 SPF)
Compression mode                         : Lossy
Stream size                              : 72.1 MiB (3%)
Language                                 : English
Service kind                             : Complete Main
Default                                  : Yes
Forced                                   : No

Text #1
ID                                       : 3
Format                                   : UTF-8
Codec ID                                 : S_TEXT/UTF8
Codec ID/Info                            : UTF-8 Plain Text
Duration                                 : 41 min 51 s
Bit rate                                 : 60 b/s
Count of elements                        : 602
Stream size                              : 18.4 KiB (0%)
Language                                 : English
Default                                  : No
Forced                                   : No

Text #2
ID                                       : 4
Format                                   : UTF-8
Codec ID                                 : S_TEXT/UTF8
Codec ID/Info                            : UTF-8 Plain Text
Duration                                 : 44 min 38 s
Bit rate                                 : 64 b/s
Count of elements                        : 791
Stream size                              : 21.1 KiB (0%)
Title                                    : SDH
Language                                 : English
Default                                  : No
Forced                                   : No

Menu
00:00:28.000                             : Intro
00:00:54.000                             : Main
00:44:56.000                             : Credits