General
Complete name                            : S.W.A.T.2017.S03E03.FRENCH.720p.AMZN.WEB-DL.H264-FRATERNiTY.mkv
Format                                   : Matroska
Format version                           : Version 4
File size                                : 1 002 MiB
Duration                                 : 41 min 20 s
Overall bit rate                         : 3 389 kb/s
Encoded date                             : UTC 2019-11-14 12:55:04
Writing application                      : mkvmerge v32.0.0 ('Astral Progressions') 64-bit
Writing library                          : libebml v1.3.7 + libmatroska v1.5.0

Video
ID                                       : 1
Format                                   : AVC
Format/Info                              : Advanced Video Codec
Format profile                           : [email protected]
Format settings                          : CABAC / 5 Ref Frames
Format settings, CABAC                   : Yes
Format settings, RefFrames               : 5 frames
Codec ID                                 : V_MPEG4/ISO/AVC
Duration                                 : 41 min 20 s
Bit rate                                 : 3 195 kb/s
Width                                    : 1 280 pixels
Height                                   : 720 pixels
Display aspect ratio                     : 16:9
Frame rate mode                          : Constant
Frame rate                               : 24.000 FPS
Color space                              : YUV
Chroma subsampling                       : 4:2:0
Bit depth                                : 8 bits
Scan type                                : Progressive
Bits/(Pixel*Frame)                       : 0.144
Stream size                              : 945 MiB (94%)
Title                                    : S.W.A.T.2017.S03E03.FRENCH.720p.AMZN.WEB-DL.H264-FRATERNiTY
Default                                  : Yes
Forced                                   : No
Color range                              : Limited
Color primaries                          : BT.709
Transfer characteristics                 : BT.709
Matrix coefficients                      : BT.709

Audio
ID                                       : 2
Format                                   : AC-3
Format/Info                              : Audio Coding 3
Commercial name                          : Dolby Digital
Codec ID                                 : A_AC3
Duration                                 : 41 min 20 s
Bit rate mode                            : Constant
Bit rate                                 : 192 kb/s
Channel(s)                               : 2 channels
Channel layout                           : L R
Sampling rate                            : 48.0 kHz
Frame rate                               : 31.250 FPS (1536 SPF)
Bit depth                                : 16 bits
Compression mode                         : Lossy
Stream size                              : 56.8 MiB (6%)
Title                                    : S.W.A.T.2017.S03E03.FRENCH.720p.AMZN.WEB-DL.H264-FRATERNiTY
Language                                 : French
Service kind                             : Complete Main
Default                                  : Yes
Forced                                   : No