foobar2000 1.3.7 / Dynamic Range Meter 1.1.1
log date: 2015-03-17 02:06:06

--------------------------------------------------------------------------------
Analyzed: Neil Young / After The Gold Rush [SHM-CD]
--------------------------------------------------------------------------------

DR         Peak         RMS     Duration Track
--------------------------------------------------------------------------------
DR9        0.00 dB   -10.81 dB      2:59 01-Tell Me Why
DR10       0.00 dB   -12.63 dB      3:46 02-After The Goldrush
DR9        0.00 dB   -11.87 dB      3:08 03-Only Love Can Break Your Heart
DR9        0.00 dB   -10.20 dB      5:32 04-Southern Man
DR12       0.00 dB   -14.54 dB      1:21 05-Till The Morning Comes
DR11       0.00 dB   -13.63 dB      3:50 06-Oh, Lonesome Me
DR11       0.00 dB   -13.49 dB      2:58 07-Don't Let It Bring You Down
DR10       0.00 dB   -13.44 dB      2:33 08-Birds
DR8        0.00 dB    -9.98 dB      4:05 09-When You Dance You Can Really Love
DR9        0.00 dB   -11.12 dB      3:28 10-I Believe In You
DR10       0.00 dB   -12.35 dB      1:35 11-Cripple Creek Ferry
--------------------------------------------------------------------------------

Number of tracks:  11
Official DR value: DR10

Samplerate:        44100 Hz
Channels:          2
Bits per sample:   16
Bitrate:           871 kbps
Codec:             FLAC
================================================================================