[CUETools log; Date: 11/21/2018 11:07:31 AM; Version: 2.1.5]
[CTDB TOCID: TVDCb6naqAuDsFaJrB0YuprEGGg-] found.
Track | CTDB Status
  1   | (28/28) Accurately ripped
  2   | (28/28) Accurately ripped
  3   | (28/28) Accurately ripped
  4   | (28/28) Accurately ripped
  5   | (28/28) Accurately ripped
  6   | (28/28) Accurately ripped
  7   | (25/28) Accurately ripped
  8   | (28/28) Accurately ripped
[AccurateRip ID: 000a8d3e-004762fd-6f08ab08] found.
Track   [  CRC   |   V2   ] Status
 01     [6bfdcb46|86e2b4ee] (00+19/19) Accurately ripped
 02     [c308db47|80bffe40] (00+19/19) Accurately ripped
 03     [158ac772|6076595a] (00+18/18) Accurately ripped
 04     [2b4fac2f|babe27b3] (00+19/19) Accurately ripped
 05     [a011ac9e|b9e8fed1] (00+18/18) Accurately ripped
 06     [13d9f4d9|1e2eaa4d] (00+19/19) Accurately ripped
 07     [139e5d45|e518d535] (00+19/19) Accurately ripped
 08     [0a0bf16c|5a19aec0] (00+19/19) Accurately ripped

Track Peak [ CRC32  ] [W/O NULL] [  LOG   ]
 --  100.0 [E0E9C90F] [B51FA026]   CRC32   
 01  100.0 [77FF9824] [8F91EA19]           
 02  100.0 [0867552A] [434EA2A8]           
 03  100.0 [AB721924] [8DA97E21]           
 04  100.0 [AAD3A3A7] [BDB471B9]           
 05  100.0 [2E4A1D5E] [C45658AD]           
 06  100.0 [AC3F237A] [B575C416]           
 07  100.0 [3C3272B2] [1B0FB4FD]           
 08  100.0 [1FAB4D63] [A2515E4E]