Correspondant.17.(Foreign.Correspondent).1940.BD.Remux.Criterion.VOSTFR.x264.FLAC.1.0-rutracker.mkv

Format                                   : Matroska
Format version                           : Version 4
File size                                : 20.6 GiB
Duration                                 : 2 h 0 min
Overall bit rate mode                    : Variable
Overall bit rate                         : 24.5 Mb/s
Encoded date                             : UTC 2022-09-15 01:27:28
Writing application                      : mkvmerge v41.0.0 ('Smarra') 64-bit
Writing library                          : libebml v1.3.9 + libmatroska v1.5.2

Video
ID                                       : 1
Format                                   : AVC
Format/Info                              : Advanced Video Codec
Format profile                           : [email protected]
Format settings                          : CABAC / 4 Ref Frames
Format settings, CABAC                   : Yes
Format settings, Reference frames        : 4 frames
Codec ID                                 : V_MPEG4/ISO/AVC
Duration                                 : 2 h 0 min
Bit rate mode                            : Variable
Bit rate                                 : 23.9 Mb/s
Maximum bit rate                         : 37.0 Mb/s
Width                                    : 1 920 pixels
Height                                   : 1 080 pixels
Display aspect ratio                     : 16:9
Frame rate mode                          : Constant
Frame rate                               : 23.976 (24000/1001) FPS
Color space                              : YUV
Chroma subsampling                       : 4:2:0
Bit depth                                : 8 bits
Scan type                                : Progressive
Bits/(Pixel*Frame)                       : 0.481
Stream size                              : 20.1 GiB (98%)
Language                                 : English
Default                                  : Yes
Forced                                   : No

Audio
ID                                       : 2
Format                                   : FLAC
Format/Info                              : Free Lossless Audio Codec
Codec ID                                 : A_FLAC
Duration                                 : 2 h 0 min
Bit rate mode                            : Variable
Bit rate                                 : 602 kb/s
Channel(s)                               : 1 channel
Channel layout                           : C
Sampling rate                            : 48.0 kHz
Frame rate                               : 11.719 FPS (4096 SPF)
Bit depth                                : 24 bits
Compression mode                         : Lossless
Stream size                              : 518 MiB (2%)
Title                                    : English FLAC 1.0
Writing library                          : libFLAC 1.3.1 (UTC 2014-11-25)
Language                                 : English
Default                                  : Yes
Forced                                   : No

Text #1
ID                                       : 3
Format                                   : UTF-8
Codec ID                                 : S_TEXT/UTF8
Codec ID/Info                            : UTF-8 Plain Text
Duration                                 : 1 h 59 min
Bit rate                                 : 75 b/s
Count of elements                        : 1559
Stream size                              : 66.0 KiB (0%)
Title                                    : French Complet SRT
Language                                 : French
Default                                  : Yes
Forced                                   : Yes

Text #2
ID                                       : 4
Format                                   : UTF-8
Codec ID                                 : S_TEXT/UTF8
Codec ID/Info                            : UTF-8 Plain Text
Duration                                 : 1 h 57 min
Bit rate                                 : 80 b/s
Count of elements                        : 1572
Stream size                              : 69.1 KiB (0%)
Title                                    : English Complet SRT
Language                                 : English
Default                                  : No
Forced                                   : No

Text #3
ID                                       : 5
Format                                   : UTF-8
Codec ID                                 : S_TEXT/UTF8
Codec ID/Info                            : UTF-8 Plain Text
Duration                                 : 1 h 58 min
Bit rate                                 : 84 b/s
Count of elements                        : 1789
Stream size                              : 73.4 KiB (0%)
Title                                    : English SDH SRT
Language                                 : English
Default                                  : No
Forced                                   : No