Numero.17.(Number.Seventeen).1932.BDRip.480p.Restored.VOSTFR.x264.AC3.2.0-BzH29.mkv

Format                                   : Matroska
Format version                           : Version 4
File size                                : 702 MiB
Duration                                 : 1 h 3 min
Overall bit rate                         : 1 543 kb/s
Encoded date                             : UTC 2022-04-02 09:22:11
Writing application                      : mkvmerge v63.0.0 ('Everything') 64-bit
Writing library                          : libebml v1.4.2 + libmatroska v1.6.4

Video
ID                                       : 1
Format                                   : AVC
Format/Info                              : Advanced Video Codec
Format profile                           : [email protected]
Format settings                          : CABAC / 5 Ref Frames
Format settings, CABAC                   : Yes
Format settings, Reference frames        : 5 frames
Codec ID                                 : V_MPEG4/ISO/AVC
Duration                                 : 1 h 3 min
Bit rate                                 : 1 349 kb/s
Width                                    : 720 pixels
Height                                   : 404 pixels
Display aspect ratio                     : 1.204
Frame rate mode                          : Constant
Frame rate                               : 23.976 (24000/1001) FPS
Color space                              : YUV
Chroma subsampling                       : 4:2:0
Bit depth                                : 8 bits
Scan type                                : Progressive
Bits/(Pixel*Frame)                       : 0.193
Stream size                              : 614 MiB (87%)
Writing library                          : x264 core 157 r2935 545de2f


Audio
ID                                       : 2
Format                                   : AC-3
Format/Info                              : Audio Coding 3
Commercial name                          : Dolby Digital
Codec ID                                 : A_AC3
Duration                                 : 1 h 3 min
Bit rate mode                            : Constant
Bit rate                                 : 192 kb/s
Channel(s)                               : 2 channels
Channel layout                           : L R
Sampling rate                            : 48.0 kHz
Frame rate                               : 31.250 FPS (1536 SPF)
Compression mode                         : Lossy
Delay relative to video                  : -5 ms
Stream size                              : 87.4 MiB (12%)
Title                                    : English AC3 2.0
Language                                 : English
Service kind                             : Complete Main
Default                                  : Yes
Forced                                   : No

Text #1
ID                                       : 3
Format                                   : UTF-8
Codec ID                                 : S_TEXT/UTF8
Codec ID/Info                            : UTF-8 Plain Text
Duration                                 : 1 h 2 min
Bit rate                                 : 22 b/s
Count of elements                        : 444
Stream size                              : 10.5 KiB (0%)
Title                                    : French Complet
Language                                 : French
Default                                  : Yes
Forced                                   : Yes

Text #2
ID                                       : 4
Format                                   : UTF-8
Codec ID                                 : S_TEXT/UTF8
Codec ID/Info                            : UTF-8 Plain Text
Duration                                 : 57 min 52 s
Bit rate                                 : 42 b/s
Count of elements                        : 674
Stream size                              : 18.0 KiB (0%)
Title                                    : English Complet
Language                                 : English
Default                                  : No
Forced                                   : No