C.est.La.Vie.(Downhill).1927.BDRip.1080p.Criterion.Restored.VOSTFR.x264.AC3.2.0-BiPOLAR.mkv

Format                                   : Matroska
Format version                           : Version 4
File size                                : 7.65 GiB
Duration                                 : 1 h 50 min
Overall bit rate                         : 9 871 kb/s
Encoded date                             : UTC 2022-09-23 06:08:24
Writing application                      : mkvmerge v41.0.0 ('Smarra') 64-bit
Writing library                          : libebml v1.3.9 + libmatroska v1.5.2

Video
ID                                       : 1
Format                                   : AVC
Format/Info                              : Advanced Video Codec
Format profile                           : [email protected]
Format settings                          : CABAC / 4 Ref Frames
Format settings, CABAC                   : Yes
Format settings, Reference frames        : 4 frames
Codec ID                                 : V_MPEG4/ISO/AVC
Duration                                 : 1 h 50 min
Bit rate                                 : 9 678 kb/s
Width                                    : 1 456 pixels
Height                                   : 1 080 pixels
Display aspect ratio                     : 4:3
Frame rate mode                          : Constant
Frame rate                               : 19.181 FPS
Color space                              : YUV
Chroma subsampling                       : 4:2:0
Bit depth                                : 8 bits
Scan type                                : Progressive
Bits/(Pixel*Frame)                       : 0.321
Stream size                              : 7.50 GiB (98%)
Writing library                          : x264 core 157 r2969 d4099dd


Audio
ID                                       : 2
Format                                   : AC-3
Format/Info                              : Audio Coding 3
Commercial name                          : Dolby Digital
Codec ID                                 : A_AC3
Duration                                 : 1 h 50 min
Bit rate mode                            : Constant
Bit rate                                 : 192 kb/s
Channel(s)                               : 2 channels
Channel layout                           : L R
Sampling rate                            : 48.0 kHz
Frame rate                               : 31.250 FPS (1536 SPF)
Compression mode                         : Lossy
Stream size                              : 152 MiB (2%)
Title                                    : English AC3 2.0
Language                                 : English
Service kind                             : Complete Main
Default                                  : Yes
Forced                                   : No

Text
ID                                       : 3
Format                                   : UTF-8
Codec ID                                 : S_TEXT/UTF8
Codec ID/Info                            : UTF-8 Plain Text
Duration                                 : 1 h 47 min
Bit rate                                 : 5 b/s
Count of elements                        : 102
Stream size                              : 4.57 KiB (0%)
Title                                    : French Complet
Language                                 : French
Default                                  : Yes
Forced                                   : Yes