Les.Cheveux.D.Or.(The.Lodger).1927.BD.Remux.Criterion.REMASTERED.VOSTFR.x264.PCM.2.0.mkv

Format                                   : Matroska
Format version                           : Version 4
File size                                : 19.8 GiB
Duration                                 : 1 h 30 min
Overall bit rate mode                    : Variable
Overall bit rate                         : 31.4 Mb/s
Encoded date                             : UTC 2022-09-23 09:45:04
Writing application                      : mkvmerge v63.0.0 ('Everything') 64-bit
Writing library                          : libebml v1.4.2 + libmatroska v1.6.4

Video
ID                                       : 1
Format                                   : AVC
Format/Info                              : Advanced Video Codec
Format profile                           : [email protected]
Format settings                          : CABAC / 4 Ref Frames
Format settings, CABAC                   : Yes
Format settings, Reference frames        : 4 frames
Codec ID                                 : V_MPEG4/ISO/AVC
Duration                                 : 1 h 30 min
Bit rate mode                            : Variable
Bit rate                                 : 29.1 Mb/s
Maximum bit rate                         : 37.0 Mb/s
Width                                    : 1 920 pixels
Height                                   : 1 080 pixels
Display aspect ratio                     : 16:9
Frame rate mode                          : Constant
Frame rate                               : 23.976 (24000/1001) FPS
Color space                              : YUV
Chroma subsampling                       : 4:2:0
Bit depth                                : 8 bits
Scan type                                : Progressive
Bits/(Pixel*Frame)                       : 0.585
Stream size                              : 18.4 GiB (93%)
Default                                  : Yes
Forced                                   : No

Audio
ID                                       : 2
Format                                   : PCM
Format settings                          : Little / Signed
Codec ID                                 : A_PCM/INT/LIT
Duration                                 : 1 h 30 min
Bit rate mode                            : Constant
Bit rate                                 : 2 304 kb/s
Channel(s)                               : 2 channels
Sampling rate                            : 48.0 kHz
Frame rate                               : 32.000 FPS (1500 SPF)
Bit depth                                : 24 bits
Stream size                              : 1.45 GiB (7%)
Title                                    : English PCM 2.0
Language                                 : English
Default                                  : Yes
Forced                                   : No

Text
ID                                       : 3
Format                                   : UTF-8
Codec ID                                 : S_TEXT/UTF8
Codec ID/Info                            : UTF-8 Plain Text
Duration                                 : 1 h 27 min
Bit rate                                 : 7 b/s
Count of elements                        : 120
Stream size                              : 5.04 KiB (0%)
Title                                    : French Complet SRT
Language                                 : French
Default                                  : Yes
Forced                                   : No