foobar2000 1.6.12 / Dynamic Range Meter 1.1.1
log date: 2022-09-24 18:02:48

--------------------------------------------------------------------------------
Analyzed: Beth Orton / Weather Alive
--------------------------------------------------------------------------------

DR         Peak         RMS     Duration Track
--------------------------------------------------------------------------------
DR8       -0.15 dB    -9.72 dB      7:05 01-Weather Alive
DR7       -0.15 dB    -8.37 dB      5:34 02-Friday Night
DR8       -0.15 dB   -10.08 dB      5:20 03-Fractals
DR7       -0.15 dB   -10.13 dB      4:37 04-Haunted Satellite
DR7       -0.15 dB    -8.17 dB      5:40 05-Forever Young
DR8       -0.15 dB   -10.05 dB      4:24 06-Lonely
DR8       -0.15 dB   -10.73 dB      5:44 07-Arms Around a Memory
DR7       -0.15 dB    -9.44 dB      7:19 08-Unwritten
--------------------------------------------------------------------------------

Number of tracks:  8
Official DR value: DR7

Samplerate:        96000 Hz
Channels:          2
Bits per sample:   24
Bitrate:           2724 kbps
Codec:             FLAC
================================================================================