foobar2000 1.6.6 / Dynamic Range Meter 1.1.1
log date: 2022-02-20 08:57:11

--------------------------------------------------------------------------------
Analyzed: Nicolas Altstaedt, Pekka Kuusisto, Rotterdam Philharmonic Orchestra & Dima Slobodeniouk / Salonen: Cello Concerto & Ravel: Sonata for Violin and Cello
--------------------------------------------------------------------------------

DR         Peak         RMS     Duration Track
--------------------------------------------------------------------------------
DR15      -3.35 dB   -25.27 dB     13:11 01-Cello Concerto: I.
DR13      -4.98 dB   -24.34 dB      9:24 02-Cello Concerto: II.
DR16      -0.10 dB   -21.47 dB     13:31 03-Cello Concerto: III.
DR15      -2.57 dB   -23.73 dB      5:32 04-Sonata in A Minor for Violin and Cello, M. 73: I. Allegro
DR15      -2.30 dB   -21.75 dB      3:19 05-Sonata in A Minor for Violin and Cello, M. 73: II. Très vif
DR16      -2.63 dB   -26.79 dB      6:30 06-Sonata in A Minor for Violin and Cello, M. 73: III. Lent
DR15      -2.30 dB   -21.55 dB      5:53 07-Sonata in A Minor for Violin and Cello, M. 73: IV. Vif, avec entrain
--------------------------------------------------------------------------------

Number of tracks:  7
Official DR value: DR15
Samplerate:        96000 Hz
Channels:          2
Bits per sample:   24
Bitrate:           2431 kbps
Codec:             FLAC
================================================================================