Un.Mort.En.Pleine.Forme.(The.Wrong.Box).1966.BDRip.720p.VOSTFR.HDLight.x264.AC3.1.0-BzH29.mkv

Format                                   : Matroska
Format version                           : Version 4
File size                                : 1.81 GiB
Duration                                 : 1 h 45 min
Overall bit rate                         : 2 458 kb/s
Encoded date                             : UTC 2022-11-13 16:54:32
Writing application                      : mkvmerge v41.0.0 ('Smarra') 64-bit
Writing library                          : libebml v1.3.9 + libmatroska v1.5.2

Video
ID                                       : 1
Format                                   : AVC
Format/Info                              : Advanced Video Codec
Format profile                           : [email protected]
Format settings                          : CABAC / 5 Ref Frames
Format settings, CABAC                   : Yes
Format settings, Reference frames        : 5 frames
Codec ID                                 : V_MPEG4/ISO/AVC
Duration                                 : 1 h 45 min
Bit rate                                 : 2 200 kb/s
Width                                    : 1 280 pixels
Height                                   : 720 pixels
Display aspect ratio                     : 16:9
Frame rate mode                          : Constant
Frame rate                               : 23.976 (24000/1001) FPS
Color space                              : YUV
Chroma subsampling                       : 4:2:0
Bit depth                                : 8 bits
Scan type                                : Progressive
Bits/(Pixel*Frame)                       : 0.100
Stream size                              : 1.62 GiB (89%)
Writing library                          : x264 core 157 r2935 545de2f


Audio
ID                                       : 2
Format                                   : AC-3
Format/Info                              : Audio Coding 3
Commercial name                          : Dolby Digital
Codec ID                                 : A_AC3
Duration                                 : 1 h 45 min
Bit rate mode                            : Constant
Bit rate                                 : 256 kb/s
Channel(s)                               : 1 channel
Channel layout                           : C
Sampling rate                            : 48.0 kHz
Frame rate                               : 31.250 FPS (1536 SPF)
Compression mode                         : Lossy
Delay relative to video                  : -5 ms
Stream size                              : 193 MiB (10%)
Title                                    : English AC3 1.0
Language                                 : English
Service kind                             : Complete Main
Default                                  : Yes
Forced                                   : No

Text #1
ID                                       : 3
Format                                   : UTF-8
Codec ID                                 : S_TEXT/UTF8
Codec ID/Info                            : UTF-8 Plain Text
Duration                                 : 1 h 40 min
Bit rate                                 : 53 b/s
Count of elements                        : 1227
Stream size                              : 39.0 KiB (0%)
Title                                    : French Complet
Language                                 : French
Default                                  : Yes
Forced                                   : Yes

Text #2
ID                                       : 4
Format                                   : UTF-8
Codec ID                                 : S_TEXT/UTF8
Codec ID/Info                            : UTF-8 Plain Text
Duration                                 : 1 h 40 min
Bit rate                                 : 67 b/s
Count of elements                        : 1420
Stream size                              : 49.5 KiB (0%)
Title                                    : English SDH
Language                                 : English
Default                                  : No
Forced                                   : No