La.Vallee.Perdue.(The.Last.Valley).1971.BDRip.1080p.VOSTFR.x264.FLAC.2.0-BzH29.mkv

Format                                   : Matroska
Format version                           : Version 4
File size                                : 10.8 GiB
Duration                                 : 2 h 5 min
Overall bit rate mode                    : Variable
Overall bit rate                         : 12.3 Mb/s
Encoded date                             : UTC 2022-11-16 08:21:32
Writing application                      : mkvmerge v41.0.0 ('Smarra') 64-bit
Writing library                          : libebml v1.3.9 + libmatroska v1.5.2

Video
ID                                       : 1
Format                                   : AVC
Format/Info                              : Advanced Video Codec
Format profile                           : [email protected]
Format settings                          : CABAC / 5 Ref Frames
Format settings, CABAC                   : Yes
Format settings, Reference frames        : 5 frames
Codec ID                                 : V_MPEG4/ISO/AVC
Duration                                 : 2 h 5 min
Bit rate                                 : 12.0 Mb/s
Width                                    : 1 920 pixels
Height                                   : 820 pixels
Display aspect ratio                     : 2.35:1
Frame rate mode                          : Constant
Frame rate                               : 23.976 (24000/1001) FPS
Color space                              : YUV
Chroma subsampling                       : 4:2:0
Bit depth                                : 8 bits
Scan type                                : Progressive
Bits/(Pixel*Frame)                       : 0.318
Stream size                              : 10.5 GiB (97%)
Writing library                          : x264 core 157 r2935 545de2f


Audio
ID                                       : 2
Format                                   : FLAC
Format/Info                              : Free Lossless Audio Codec
Codec ID                                 : A_FLAC
Duration                                 : 2 h 5 min
Bit rate mode                            : Variable
Bit rate                                 : 341 kb/s
Channel(s)                               : 2 channels
Channel layout                           : L R
Sampling rate                            : 48.0 kHz
Frame rate                               : 11.719 FPS (4096 SPF)
Bit depth                                : 16 bits
Compression mode                         : Lossless
Stream size                              : 306 MiB (3%)
Title                                    : English FLAC 2.0
Language                                 : English
Default                                  : Yes
Forced                                   : No

Text #1
ID                                       : 3
Format                                   : UTF-8
Codec ID                                 : S_TEXT/UTF8
Codec ID/Info                            : UTF-8 Plain Text
Duration                                 : 2 h 4 min
Bit rate                                 : 44 b/s
Count of elements                        : 1125
Stream size                              : 40.1 KiB (0%)
Title                                    : French Complet
Language                                 : French
Default                                  : Yes
Forced                                   : Yes

Text #2
ID                                       : 4
Format                                   : UTF-8
Codec ID                                 : S_TEXT/UTF8
Codec ID/Info                            : UTF-8 Plain Text
Duration                                 : 2 h 0 min
Bit rate                                 : 39 b/s
Count of elements                        : 1119
Stream size                              : 35.0 KiB (0%)
Title                                    : English Complet
Language                                 : English
Default                                  : No
Forced                                   : No